<?xml version="1.0" standalone="no"?>
<!DOCTYPE svg PUBLIC "-//W3C//DTD SVG 1.1//EN" "http://www.w3.org/Graphics/SVG/1.1/DTD/svg11.dtd" >
<svg xmlns="http://www.w3.org/2000/svg">
<metadata></metadata>
<defs>
<font id="misobold" horiz-adv-x="851" >
<font-face units-per-em="2048" ascent="1638" descent="-410" />
<missing-glyph horiz-adv-x="393" />
<glyph horiz-adv-x="0" />
<glyph horiz-adv-x="682" />
<glyph unicode=" "  horiz-adv-x="393" />
<glyph unicode="&#x09;" horiz-adv-x="393" />
<glyph unicode="&#xa0;" horiz-adv-x="393" />
<glyph unicode="!" horiz-adv-x="409" d="M86 78q0 49 35 84t84 35t84 -35t35 -84t-35 -84t-84 -35t-84 35t-35 84zM106 385v819q0 41 29 70t70 29t69.5 -29t28.5 -70v-819q0 -41 -28.5 -69.5t-69.5 -28.5t-70 28.5t-29 69.5z" />
<glyph unicode="&#x22;" horiz-adv-x="720" d="M98 1040v205q0 41 29 69.5t70 28.5t69.5 -28.5t28.5 -69.5v-205q0 -41 -28.5 -69.5t-69.5 -28.5t-70 28.5t-29 69.5zM426 1040v205q0 41 28.5 69.5t69.5 28.5t70 -28.5t29 -69.5v-205q0 -41 -29 -69.5t-70 -28.5t-69.5 28.5t-28.5 69.5z" />
<glyph unicode="#" horiz-adv-x="937" d="M8 508q0 39 26.5 65.5t65.5 26.5h113v141h-113q-39 0 -65.5 28t-26.5 67t26.5 65.5t65.5 26.5h113v317q0 39 26.5 65.5t65.5 26.5t66.5 -26.5t27.5 -65.5v-317h142v317q0 39 26.5 65.5t65.5 26.5t66.5 -26.5t27.5 -65.5v-317h111q39 0 66.5 -27t27.5 -65q0 -39 -27.5 -67 t-66.5 -28h-111v-141h111q39 0 66.5 -26.5t27.5 -65.5t-27.5 -66.5t-66.5 -27.5h-111v-357q0 -39 -27.5 -66.5t-66.5 -27.5t-65.5 27.5t-26.5 66.5v357h-142v-357q0 -39 -27.5 -66.5t-66.5 -27.5t-65.5 27.5t-26.5 66.5v357h-113q-39 0 -65.5 27.5t-26.5 66.5zM399 600h142 v141h-142v-141z" />
<glyph unicode="$" d="M114 280.5q11 38.5 46 61.5q35 20 73.5 9t59.5 -46q33 -55 94 -65q63 -10 111 30q49 39 49 105q-2 29 -14.5 56.5t-36.5 45.5l-256 211q-57 45 -88 109.5t-31 136.5q-2 72 27.5 137.5t84.5 112.5q25 23 53.5 38t59.5 25v80q0 41 28.5 69.5t69.5 28.5t70 -28.5t29 -69.5 v-82q57 -16 104 -54t76 -91q23 -35 11.5 -74t-46.5 -61q-35 -20 -74 -9t-61 45q-29 51 -88 62q-59 10 -105 -29q-47 -39 -43 -98q0 -57 45 -96l259 -211q57 -47 88.5 -112.5t33.5 -139.5q0 -76 -30.5 -142.5t-85.5 -113.5q-27 -23 -56.5 -39t-60.5 -27v-80 q0 -41 -28.5 -69.5t-69.5 -28.5t-70 28.5t-29 69.5v80q-125 39 -190 152q-20 35 -9 73.5z" />
<glyph unicode="%" horiz-adv-x="1214" d="M49 1061q0 55 21.5 105.5t58.5 87t86 58t107 21.5q55 0 105 -21.5t87 -58t58.5 -87t21.5 -105.5q0 -57 -21.5 -106.5t-58.5 -86.5t-87 -58.5t-105 -21.5q-57 0 -106.5 21.5t-86.5 58.5t-58.5 86.5t-21.5 106.5zM225 1061q0 -41 28 -68.5t69 -27.5t68.5 27.5t27.5 68.5 t-28 68.5t-68 27.5q-41 0 -69 -27.5t-28 -68.5zM228.5 24q-13.5 39 4.5 76l574 1188q16 37 55 50t76 -5q37 -16 50 -55t-5 -76l-573 -1188q-16 -37 -55.5 -50t-75.5 5q-37 16 -50.5 55zM623 242q0 55 21.5 105t58 87t86 58.5t106.5 21.5q55 0 105.5 -21.5t87 -58.5t58 -87 t21.5 -105q0 -57 -21.5 -106.5t-58 -86.5t-87 -58.5t-105.5 -21.5q-57 0 -106.5 21.5t-86 58.5t-58 86t-21.5 107zM799 242q0 -41 27.5 -69t68.5 -28t68.5 28t27.5 69t-27.5 68.5t-68.5 27.5t-68.5 -27.5t-27.5 -68.5z" />
<glyph unicode="&#x26;" horiz-adv-x="1009" d="M72 250q-12 70 5 138.5t60 125.5l150 193l-125 159l-6 8q-47 72 -49.5 156t38.5 158q41 76 116 118t161 37q86 -4 156.5 -50t105.5 -124q37 -78 29 -161.5t-62 -151.5l-116 -149l139 -183l24 -28l37 63q23 35 62 45t73 -12q35 -23 45.5 -61.5t-10.5 -73.5l-78 -129 l146 -191q25 -33 20.5 -72.5t-37.5 -64.5t-73.5 -19.5t-65.5 37.5l-98 129l-14 -22q-35 -59 -93.5 -100t-128.5 -58q-70 -16 -138.5 -3t-127.5 54t-97 100.5t-48 131.5zM264 281q10 -61 64 -101q53 -36 114 -20q61 12 95 67l53 86l-72 93l-106 139l-119 -152 q-39 -51 -29 -112zM303 1037.5q0 -29.5 16 -54.5l93 -117l84 109q39 51 12 110q-29 57 -94 62q-29 2 -54.5 -13.5t-42.5 -41.5q-14 -25 -14 -54.5z" />
<glyph unicode="'" horiz-adv-x="393" d="M98 1040v205q0 41 29 69.5t70 28.5t69.5 -28.5t28.5 -69.5v-205q0 -41 -28.5 -69.5t-69.5 -28.5t-70 28.5t-29 69.5z" />
<glyph unicode="(" horiz-adv-x="548" d="M82 651q0 221 70 428q74 211 213 391q25 31 64.5 36t72.5 -19q33 -27 38 -67t-22 -72q-59 -76 -104 -158t-76 -174q-59 -182 -59 -365q0 -186 59 -364q31 -92 76 -174t104 -158q27 -33 22 -73t-38 -66q-33 -25 -73 -21t-64 37q-139 180 -213 391q-70 207 -70 428z" />
<glyph unicode=")" horiz-adv-x="550" d="M9 -97q-5 40 20 72q121 154 182 332q59 178 59 365q0 182 -59 364q-61 178 -182 332q-25 33 -20 73t38 66q33 25 73 20t64 -36q141 -182 211 -391q72 -211 72 -428t-72 -428q-70 -209 -211 -391q-25 -33 -64.5 -37t-72.5 20q-33 27 -38 67z" />
<glyph unicode="*" d="M69.5 1067q-10.5 37 10.5 72q18 33 55 43t72 -11l127 -71v145q0 39 26.5 65.5t65.5 26.5t66.5 -26.5t27.5 -65.5v-145l125 71q35 20 72 10t55 -42q20 -35 10 -72t-43 -55l-127 -74l127 -74q33 -18 43.5 -55t-10.5 -72q-18 -35 -55 -44t-72 12l-125 71v-145 q0 -39 -27.5 -66.5t-66.5 -27.5t-65.5 27.5t-26.5 66.5v145l-127 -71q-35 -20 -72 -11.5t-55 43.5q-20 35 -10 72t43 55l127 74l-127 74q-33 18 -43.5 55z" />
<glyph unicode="+" d="M82 590q0 41 28.5 69.5t69.5 28.5h148v148q0 41 28.5 69.5t69.5 28.5t69.5 -28.5t28.5 -69.5v-148h148q41 0 69.5 -28.5t28.5 -69.5t-28.5 -69.5t-69.5 -28.5h-148v-148q0 -41 -28.5 -69.5t-69.5 -28.5t-69.5 28.5t-28.5 69.5v148h-148q-41 0 -69.5 28.5t-28.5 69.5z" />
<glyph unicode="," horiz-adv-x="393" d="M72 98q0 39 26.5 65.5t65.5 26.5h65q39 0 67 -26.5t28 -65.5v-98q0 -61 -34 -111.5t-89 -72.5q-37 -16 -72 -1t-51 50q-16 37 -1 72t52 51q8 4 8 12v8q-29 10 -47 35t-18 55z" />
<glyph unicode="-" d="M82 590q0 41 28.5 69.5t69.5 28.5h492q41 0 69.5 -28.5t28.5 -69.5t-28.5 -69.5t-69.5 -28.5h-492q-41 0 -69.5 28.5t-28.5 69.5z" />
<glyph unicode="." horiz-adv-x="393" d="M78 78q0 49 34.5 84t84.5 35q49 0 83.5 -35t34.5 -84t-34.5 -84t-83.5 -35t-84 35t-35 84z" />
<glyph unicode="/" d="M88 8l492 1352q14 39 51 56t76 3t56 -51t1 -74l-492 -1351q-14 -39 -50 -56.5t-75 -3.5t-56 50t-3 75z" />
<glyph unicode="0" d="M82 303v696q0 72 26.5 134.5t73.5 109.5t109.5 73.5t134.5 26.5q70 0 133.5 -26.5t109.5 -73.5t73.5 -109.5t27.5 -134.5v-696q0 -72 -27.5 -134.5t-73.5 -109.5t-109.5 -73.5t-133.5 -26.5q-72 0 -134.5 26.5t-109.5 73.5t-73.5 109.5t-26.5 134.5zM279 303 q0 -61 43 -104t104 -43q59 0 103 43t44 104v696q0 61 -44 104.5t-103 43.5q-61 0 -104 -43t-43 -105v-696z" />
<glyph unicode="1" d="M131 999.5q0 40.5 29 69.5l246 246q47 47 106 20q29 -10 45 -35.5t16 -54.5v-1188q0 -41 -28.5 -69.5t-69.5 -28.5t-69.5 28.5t-28.5 69.5v951q-14 -12 -27.5 -26.5t-23.5 -25.5q-13 -14 -27 -26q-29 -29 -70 -29t-69 29q-29 29 -29 69.5z" />
<glyph unicode="2" d="M93 1098q-11 39 9 73q70 121 207 160q66 18 132.5 10t125.5 -41q123 -66 164 -202q18 -66 12 -132.5t-36 -125.5q-72 -137 -140 -265q-29 -55 -58.5 -112t-59 -111.5t-55 -102.5t-44.5 -85h297q41 0 69.5 -29t28.5 -69q0 -41 -28.5 -70t-69.5 -29h-459q-53 0 -84 47 q-27 45 -4 97l432 819q27 55 11 112q-18 57 -70 86q-53 29 -113 13q-55 -16 -88 -68q-20 -35 -59 -46t-74 9q-35 23 -46 62z" />
<glyph unicode="3" d="M64.5 1098q-11.5 39 9.5 73q29 51 71.5 88t94 58.5t109 25t112.5 -11.5q57 -14 104 -46t81 -76t52.5 -98t18.5 -112v-81q0 -72 -27.5 -135.5t-77.5 -110.5q49 -47 77 -110.5t28 -135.5v-123q0 -59 -18.5 -112.5t-52.5 -97.5t-81 -75.5t-104 -46.5q-55 -16 -112.5 -12 t-109 25.5t-94.5 58.5t-71 88q-20 35 -9 74t46 61q35 20 73.5 9t61.5 -46q25 -43 71 -62t95 -7q47 14 77.5 53t30.5 90v123q0 61 -43 104t-104 43q-41 0 -70 29t-29 70t29 69.5t70 28.5q61 0 104 43t43 105v81q0 49 -30.5 89t-77.5 53q-49 14 -95.5 -5.5t-70.5 -62.5 q-23 -35 -62 -46t-73 9q-35 23 -46.5 62z" />
<glyph unicode="4" d="M57 375l287 901q12 39 48 57.5t77 5.5q31 -10 49.5 -36.5t18.5 -57.5q0 -10 -5 -31q-53 -166 -100 -315q-20 -63 -40.5 -130t-41 -127t-37 -112.5t-26.5 -87.5h176v189q0 41 28.5 69.5t69.5 28.5t69.5 -28.5t28.5 -69.5v-189h66q41 0 69.5 -28.5t28.5 -69.5t-28.5 -69.5 t-69.5 -28.5h-66v-189q0 -41 -28.5 -69.5t-69.5 -28.5t-69.5 28.5t-28.5 69.5v189h-311q-51 0 -80 41q-29 37 -15 88z" />
<glyph unicode="5" d="M113 651v586q0 41 28.5 69.5t69.5 28.5h426q41 0 69.5 -28.5t28.5 -69.5t-28.5 -69.5t-69.5 -28.5h-328v-287q100 35 205 8q55 -14 102.5 -46t81 -76t52 -98t18.5 -112v-225q0 -59 -18.5 -112.5t-52 -97.5t-81 -75.5t-102.5 -46.5q-115 -31 -221.5 13.5t-165.5 146.5 q-23 35 -11.5 74t46.5 61q35 20 73.5 9t61.5 -46q25 -43 71 -62.5t95 -6.5q47 14 77.5 53t30.5 90v225q0 49 -30.5 89t-77.5 53q-49 14 -95 -5.5t-71 -62.5q-16 -29 -47 -42t-64 -3q-33 8 -53 33.5t-20 60.5z" />
<glyph unicode="6" d="M100 303v696q0 57 18.5 111.5t52.5 98.5t81 76t104 46q55 14 112.5 11t109 -24.5t94.5 -58t71 -88.5q20 -35 9 -73.5t-45 -61.5q-35 -20 -74 -9t-60 46q-27 43 -72.5 62.5t-92.5 5.5q-49 -12 -80 -52t-31 -90v-180q72 33 147 33q72 0 134.5 -26.5t109.5 -73.5 t73.5 -109.5t26.5 -134.5v-205q0 -72 -26.5 -134.5t-73.5 -109.5t-109.5 -73.5t-134.5 -26.5t-134 26.5t-108 73.5t-74 109.5t-28 134.5zM297 303q0 -61 43 -104t104 -43t104.5 43t43.5 104v205q0 61 -43.5 104t-104.5 43t-104 -43t-43 -104v-205z" />
<glyph unicode="7" d="M76 1073v164q0 41 28.5 69.5t69.5 28.5h492q47 0 77 -37q29 -37 19 -84l-287 -1179q-10 -41 -44 -62.5t-75 -11.5q-35 10 -55 36t-20 60q0 6 1 11.5t3 11.5q59 244 110 455q20 90 43 182t42.5 173t34.5 146.5t26 102.5h-269v-66q0 -41 -28.5 -69.5t-69.5 -28.5 t-69.5 28.5t-28.5 69.5z" />
<glyph unicode="8" d="M82 303v123q0 72 28.5 135.5t75.5 110.5q-47 47 -75.5 110.5t-28.5 135.5v81q0 72 27.5 134.5t73.5 109.5t108.5 73.5t134.5 26.5t134.5 -26.5t109.5 -73.5t73.5 -109.5t26.5 -134.5v-81q0 -72 -27.5 -135.5t-74.5 -110.5q47 -47 74.5 -110.5t27.5 -135.5v-123 q0 -72 -26.5 -134.5t-73.5 -109.5t-109.5 -73.5t-134.5 -26.5t-134.5 26.5t-108.5 73.5t-73.5 109.5t-27.5 134.5zM279 303q0 -61 44 -104t103 -43q61 0 104 43t43 104v123q0 61 -43 104t-104 43q-59 0 -103 -43t-44 -104v-123zM279 918q0 -61 44 -104.5t103 -43.5 q61 0 104 43t43 105v81q0 61 -43 104.5t-104 43.5q-59 0 -103 -43t-44 -105v-81z" />
<glyph unicode="9" d="M63 795v204q0 72 28 134.5t74 109.5t108.5 73.5t134.5 26.5t134 -26.5t109 -73.5t74 -109.5t27 -134.5v-696q0 -59 -18.5 -112.5t-52.5 -97.5t-81 -75.5t-102 -46.5q-55 -16 -112.5 -12t-109 25.5t-94.5 58.5t-71 88q-20 35 -10 74t44 61q35 20 75 9t61 -46 q25 -43 71.5 -62.5t93.5 -6.5q47 14 78 53t31 90v180q-69 -32 -147 -32q-72 0 -134.5 26.5t-108.5 73.5t-74 109.5t-28 134.5zM260 795q0 -61 44 -104.5t104 -43.5q61 0 104 43t43 105v204q0 61 -43 104.5t-104 43.5q-59 0 -103.5 -43t-44.5 -105v-204z" />
<glyph unicode=":" horiz-adv-x="393" d="M78 78q0 49 34.5 84t84.5 35q49 0 83.5 -35t34.5 -84t-34.5 -84t-83.5 -35t-84 35t-35 84zM78 856q0 49 34.5 84t84.5 35q49 0 83.5 -35t34.5 -84t-34.5 -84t-83.5 -35t-84 35t-35 84z" />
<glyph unicode=";" horiz-adv-x="393" d="M72 98q0 39 26.5 65.5t65.5 26.5h65q39 0 67 -26.5t28 -65.5v-98q0 -61 -34 -111.5t-89 -72.5q-37 -16 -72 -1t-51 50q-16 37 -1 71.5t52 51.5q8 4 8 12v8q-29 10 -47 35t-18 55zM78 856q0 49 34.5 84t84.5 35q49 0 83.5 -35t34.5 -84t-34.5 -84t-83.5 -35t-84 35t-35 84 z" />
<glyph unicode="&#x3c;" d="M66 590q0 47 34 76l492 409q31 27 72 23t67 -35q23 -29 23 -64q0 -45 -37 -75q-80 -66 -154 -129q-63 -53 -132 -110.5t-114 -94.5q45 -39 114 -95.5t132 -109.5q74 -63 154 -129q37 -31 37 -76q0 -35 -23 -63q-27 -31 -67.5 -35t-71.5 22l-492 410q-35 29 -34 76z" />
<glyph unicode="=" d="M82 426q0 41 28.5 69.5t69.5 28.5h492q41 0 69.5 -28.5t28.5 -69.5t-28.5 -69.5t-69.5 -28.5h-492q-41 0 -69.5 28.5t-28.5 69.5zM82 754q0 41 28.5 69.5t69.5 28.5h492q41 0 69.5 -28.5t28.5 -69.5t-28.5 -70t-69.5 -29h-492q-41 0 -69.5 29t-28.5 70z" />
<glyph unicode="&#x3e;" d="M98 180q0 45 35 76q80 66 156 129l246 205q-47 37 -114 94t-132 111q-76 63 -156 129q-35 31 -35 75q0 35 23 64q27 31 66.5 35t72.5 -23l492 -409q35 -29 34 -76q0 -47 -34 -76l-492 -410q-33 -27 -73 -22.5t-66 35.5q-23 28 -23 63z" />
<glyph unicode="?" horiz-adv-x="731" d="M28.5 1098q-10.5 39 10.5 73q37 66 97.5 108t131.5 58q74 14 145.5 -2t131.5 -61q59 -47 95 -111.5t40 -138.5t-20.5 -143.5t-77.5 -122.5l-105 -105q-43 -47 -43 -104v-164q0 -41 -28.5 -69.5t-69.5 -28.5t-69.5 28.5t-28.5 69.5v164q0 68 26.5 130t73.5 112l104 104 q23 23 34 52.5t7 62.5q-4 66 -57 106q-53 41 -119 29q-31 -8 -56.5 -25.5t-41.5 -46.5q-20 -35 -60 -46t-75 9q-35 23 -45.5 62zM217 78q0 49 35 84t84 35t84 -35t35 -84t-35 -84t-84 -35t-84 35t-35 84z" />
<glyph unicode="@" horiz-adv-x="1564" d="M96 283v368q0 137 51.5 261t149.5 223q98 98 223 150t262 52q139 0 263.5 -52t222.5 -150t149 -222.5t51 -261.5v-381q0 -61 -23.5 -115.5t-63.5 -94.5t-94 -63.5t-116 -23.5h-409q-61 0 -115.5 23.5t-94.5 63.5t-63.5 94.5t-23.5 115.5t23.5 115.5t63.5 94.5t94 63.5 t116 23.5h112v109q0 33 -18 59.5t-51 40.5q-31 12 -64.5 5t-58.5 -29q-29 -29 -65.5 -28t-65.5 28q-27 29 -27 66.5t29 64.5q63 61 150.5 79.5t170.5 -16.5q41 -16 75 -42.5t59 -63.5q27 -37 39 -79t12 -85v-518h112q47 0 80 32.5t33 79.5v381q0 100 -37 191.5t-108 163.5 q-72 72 -163 109.5t-194 37.5q-100 0 -191 -38t-163 -109q-72 -72 -109.5 -163t-37.5 -192v-368q0 -102 37.5 -193.5t109.5 -163.5t163 -108.5t191 -36.5h226q39 0 65.5 -27.5t26.5 -64.5q0 -39 -26.5 -65.5t-65.5 -26.5h-226q-137 0 -262 51t-223 149t-149.5 222t-51.5 264 zM649 270q0 -47 33 -79.5t80 -32.5h112v225h-112q-47 0 -80 -33t-33 -80z" />
<glyph unicode="A" horiz-adv-x="884" d="M20 84l328 1188q8 33 34 52t60 19q35 0 60.5 -19t34.5 -52l327 -1188q3 -14 3 -28q0 -26 -12 -48q-19 -35 -58 -45q-14 -3 -27 -3q-26 0 -49 12q-35 20 -45 59q-8 25 -17 59q-8 29 -19 69t-24 87h-348q-14 -47 -24.5 -87t-18.5 -69q-8 -35 -16 -59q-10 -39 -45 -59 q-23 -13 -49 -12q-13 0 -27 3q-38 10 -58 45q-13 23 -13 49q0 13 3 27zM324 442h237q-29 106 -59.5 219t-59.5 213q-29 -100 -59.5 -212.5t-58.5 -219.5z" />
<glyph unicode="B" horiz-adv-x="876" d="M106 66v1171q0 41 29 69.5t70 28.5h246q70 0 133 -26.5t109 -73.5t74 -109.5t28 -134.5v-73q0 -72 -29 -135.5t-76 -110.5q47 -47 76 -110.5t29 -135.5v-115q0 -72 -28 -134t-74 -109.5t-109.5 -74t-132.5 -26.5h-246q-41 0 -70 29t-29 70zM303 164h148q61 0 104 43 t43 104v115q0 61 -43 104t-104 43h-148v-409zM303 770h148q61 0 104 43t43 105v73q0 61 -43 104.5t-104 43.5h-148v-369z" />
<glyph unicode="C" horiz-adv-x="788" d="M82 303v696q0 57 18.5 111.5t52 98.5t81 76t102.5 46q48 13 94 13q66 0 128 -26q106 -44 165 -147q15 -23 15 -48q0 -11 -4 -25q-12 -38 -46 -62q-23 -13 -47 -13q-13 0 -27 4q-39 11 -61 46q-25 43 -71 63q-27 11 -55 11q-20 0 -40 -6q-47 -12 -77.5 -52t-30.5 -90v-696 q0 -51 30.5 -90t77.5 -53q19 -5 37 -5q29 0 58 12q46 19 71 62q23 35 61 47q14 4 27 4q24 0 47 -14q35 -24 46 -62q4 -13 4 -25q0 -25 -15 -48q-59 -103 -165 -147q-63 -26 -129 -26q-46 0 -93 13q-55 14 -102.5 46t-81 76t-52 97.5t-18.5 112.5z" />
<glyph unicode="D" horiz-adv-x="876" d="M106 66v1171q0 41 29 69.5t70 28.5h246q72 0 134 -26.5t109 -73.5t74 -109.5t27 -134.5v-680q0 -72 -27 -134t-74 -109.5t-109.5 -74t-133.5 -26.5h-246q-41 0 -70 29t-29 70zM303 164h148q61 0 104 43t43 104v680q0 61 -43 104.5t-104 43.5h-148v-975z" />
<glyph unicode="E" horiz-adv-x="753" d="M106 66v1171q0 41 29 69.5t70 28.5h409q41 0 70 -28.5t29 -69.5t-29 -69.5t-70 -28.5h-311v-369h270q41 0 70 -28.5t29 -69.5t-29 -70t-70 -29h-270v-409h311q41 0 70 -29t29 -69q0 -41 -29 -70t-70 -29h-409q-41 0 -70 29t-29 70z" />
<glyph unicode="F" horiz-adv-x="737" d="M106 66v1171q0 41 29 69.5t70 28.5h409q41 0 70 -28.5t29 -69.5t-29 -69.5t-70 -28.5h-311v-369h270q41 0 70 -28.5t29 -69.5t-29 -70t-70 -29h-270v-507q0 -41 -28.5 -70t-69.5 -29t-70 29t-29 70z" />
<glyph unicode="G" horiz-adv-x="843" d="M82 303v696q0 57 18.5 111.5t52 98.5t81 76t104.5 46q45 12 92 12q10 0 20 -1q58 -3 109 -24.5t94 -58t72 -88.5q13 -23 13 -47q0 -13 -4 -26q-11 -39 -46 -62q-23 -13 -47 -13q-13 0 -27 4q-39 11 -59 46q-27 43 -73 63q-27 11 -54 11q-19 0 -39 -6q-49 -12 -79.5 -52 t-30.5 -90v-696q0 -61 44 -104t103 -43q61 0 104 43t43 104v229h-106q-41 0 -69.5 29t-28.5 70t28.5 69.5t69.5 28.5h205q41 0 69.5 -28.5t28.5 -69.5v-328q0 -72 -26.5 -134.5t-73.5 -109.5t-109.5 -73.5t-134.5 -26.5t-134.5 26.5t-108.5 73.5t-73.5 109.5t-27.5 134.5z " />
<glyph unicode="H" horiz-adv-x="901" d="M106 57v1188q0 41 29 69.5t70 28.5t69.5 -28.5t28.5 -69.5v-475h295v475q0 41 28.5 69.5t69.5 28.5t70 -28.5t29 -69.5v-1188q0 -41 -29 -69.5t-70 -28.5t-69.5 28.5t-28.5 69.5v516h-295v-516q0 -41 -28.5 -69.5t-69.5 -28.5t-70 28.5t-29 69.5z" />
<glyph unicode="I" horiz-adv-x="409" d="M106 57v1188q0 41 29 69.5t70 28.5t69.5 -28.5t28.5 -69.5v-1188q0 -41 -28.5 -69.5t-69.5 -28.5t-70 28.5t-29 69.5z" />
<glyph unicode="J" horiz-adv-x="681" d="M22 66q-5 13 -5 26q0 24 14 47q20 35 60 47q14 4 28 4q24 0 47 -14q35 -20 74 -20t73 20q35 18 54.5 52t19.5 75v942q0 41 28.5 69.5t69.5 28.5t70 -28.5t29 -69.5v-942q0 -92 -47.5 -172t-124.5 -127q-80 -45 -173.5 -45t-170.5 45q-35 23 -46 62z" />
<glyph unicode="K" horiz-adv-x="862" d="M106 57v1188q0 41 29 69.5t70 28.5t69.5 -28.5t28.5 -69.5v-440l354 498q25 33 65 39q8 1 16 1q31 0 57 -18q35 -23 41 -63q1 -8 1 -15q0 -31 -20 -59l-307 -432l317 -656q9 -20 9 -41q0 -17 -6 -35q-13 -38 -50 -55q-21 -10 -43 -10q-15 0 -31 5q-38 13 -57 50l-268 559 l-78 -106v-410q0 -41 -28.5 -69.5t-69.5 -28.5t-70 28.5t-29 69.5z" />
<glyph unicode="L" horiz-adv-x="712" d="M106 66v1179q0 41 29 69.5t70 28.5t69.5 -28.5t28.5 -69.5v-1081h311q41 0 70 -29t29 -69q0 -41 -29 -70t-70 -29h-409q-41 0 -70 29t-29 70z" />
<glyph unicode="M" horiz-adv-x="1064" d="M106 57v1188q0 35 20.5 61.5t55.5 34.5q12 3 24 3q22 0 42 -10q31 -15 45 -48q41 -90 84 -178q35 -78 78 -165t77 -163q35 76 77 163t77 165q41 88 84 178q16 32 46 48q19 10 40 10q12 0 25 -3q35 -8 56 -34.5t21 -61.5v-1188q0 -41 -28.5 -69.5t-69.5 -28.5t-69.5 28.5 t-28.5 69.5v748q-27 -55 -51.5 -108.5t-44.5 -94.5q-23 -49 -45 -94q-12 -27 -36 -42t-53 -15q-63 0 -90 57q-23 45 -45 94q-20 41 -44.5 94.5t-49.5 108.5v-748q0 -41 -28.5 -69.5t-69.5 -28.5t-70 28.5t-29 69.5z" />
<glyph unicode="N" horiz-adv-x="983" d="M106 57v1188q0 35 20.5 61.5t55.5 34.5q12 3 24 3q22 0 40 -10q30 -15 47 -46q61 -131 129 -268q57 -117 124.5 -258t133.5 -275v758q0 41 28.5 69.5t69.5 28.5t70 -28.5t29 -69.5v-1188q0 -35 -21.5 -61.5t-54.5 -34.5q-12 -3 -23 -3q-22 0 -42 10q-30 16 -46 46 q-61 131 -129 269q-57 117 -125.5 258t-132.5 274v-758q0 -41 -28.5 -69.5t-69.5 -28.5t-70 28.5t-29 69.5z" />
<glyph unicode="O" d="M82 303v696q0 72 26.5 134.5t73.5 109.5t109.5 73.5t134.5 26.5t134.5 -26.5t109.5 -73.5t73.5 -109.5t26.5 -134.5v-696q0 -72 -26.5 -134.5t-73.5 -109.5t-109.5 -73.5t-134.5 -26.5t-134.5 26.5t-109.5 73.5t-73.5 109.5t-26.5 134.5zM279 303q0 -61 43 -104t104 -43 t104 43t43 104v696q0 61 -43 104.5t-104 43.5t-104 -43t-43 -105v-696z" />
<glyph unicode="P" horiz-adv-x="819" d="M106 57v1180q0 41 29 69.5t70 28.5h246q72 0 134 -26.5t109 -73.5t74 -109.5t27 -134.5v-114q0 -72 -27 -134.5t-74 -109.5t-109.5 -74t-133.5 -27h-148v-475q0 -41 -28.5 -69.5t-69.5 -28.5t-70 28.5t-29 69.5zM303 729h148q61 0 104 43t43 105v114q0 61 -43 104.5 t-104 43.5h-148v-410z" />
<glyph unicode="Q" d="M82 303v696q0 72 27.5 134.5t73.5 109.5t108.5 73.5t134.5 26.5t134.5 -26.5t109.5 -73.5t73.5 -109.5t26.5 -134.5v-696q0 -70 -24.5 -129t-69.5 -106l82 -142q13 -23 13 -47q0 -13 -4 -27q-11 -38 -46 -59q-23 -15 -48 -15q-13 0 -26 4q-39 11 -59 46l-82 141 q-41 -10 -80 -10q-72 0 -134.5 26.5t-108.5 73.5t-73.5 109.5t-27.5 134.5zM279 303q0 -61 43 -104t104 -43t104 43t43 104v696q0 61 -43 104.5t-104 43.5t-104 -43t-43 -105v-696z" />
<glyph unicode="R" d="M106 57v1180q0 41 29 69.5t70 28.5h246q72 0 134 -26.5t109 -73.5t74 -109.5t27 -134.5v-114q0 -100 -50.5 -181.5t-134.5 -124.5l178 -479q8 -19 8 -37q0 -19 -9 -39q-17 -36 -56 -51q-18 -6 -35 -6q-20 1 -40 9q-36 16 -52 55l-190 509h-111v-475q0 -41 -28.5 -69.5 t-69.5 -28.5t-70 28.5t-29 69.5zM303 729h148q61 0 104 43t43 105v114q0 61 -43 104.5t-104 43.5h-148v-410z" />
<glyph unicode="S" horiz-adv-x="782" d="M60 210q12 40 46 60q23 13 47 13q13 0 27 -4q39 -11 62 -46q35 -59 104 -75q17 -3 33 -3q52 0 94 33q29 20 43 49t19 64q1 8 1 15q0 61 -44 108l-328 336q-53 52 -78 122q-20 54 -20 112q0 16 2 32q6 74 40.5 138.5t94.5 109.5q59 46 132 62q38 9 76 8q34 0 68 -7 q72 -16 132.5 -58t97.5 -108q13 -23 13 -47q0 -12 -4 -26q-11 -38 -46 -62q-23 -13 -47 -13q-13 0 -27 4q-39 11 -59 46q-35 55 -99 72q-15 3 -29 3q-49 0 -89 -32q-53 -39 -58 -106q-1 -7 -1 -15q0 -57 42 -98l326 -336q53 -55 79 -127q22 -59 22 -119q0 -14 -1 -28 q-6 -78 -43 -143.5t-96 -112.5q-61 -47 -135 -63q-40 -9 -81 -9q-34 0 -69 6q-76 16 -137 60.5t-98 109.5q-15 23 -15 49q-1 13 3 26z" />
<glyph unicode="T" horiz-adv-x="778" d="M25 1237q0 41 28.5 69.5t69.5 28.5h532q41 0 70 -28.5t29 -69.5t-29 -69.5t-70 -28.5h-168v-1082q0 -41 -28.5 -69.5t-69.5 -28.5t-69.5 28.5t-28.5 69.5v1082h-168q-41 0 -69.5 28.5t-28.5 69.5z" />
<glyph unicode="U" horiz-adv-x="868" d="M90 303v942q0 41 28.5 69.5t69.5 28.5t70 -28.5t29 -69.5v-942q0 -61 43 -104t104 -43q59 0 103.5 43t44.5 104v942q0 41 28.5 69.5t69.5 28.5t69.5 -28.5t28.5 -69.5v-942q0 -72 -27.5 -134.5t-73.5 -109.5t-109.5 -73.5t-133.5 -26.5q-72 0 -134 26.5t-109.5 73.5 t-74 109.5t-26.5 134.5z" />
<glyph unicode="V" horiz-adv-x="917" d="M37 1219q-3 14 -3 27q0 26 12 48q20 34 60 45q13 3 27 3q25 0 48 -12q36 -19 46 -58q39 -145 80 -293q35 -127 76 -274.5t78 -278.5q35 131 76 278.5t75 274.5q39 147 80 293q10 38 46 58q23 12 47 13q14 0 28 -4q41 -11 61 -45q13 -23 12 -48q0 -13 -3 -27l-328 -1188 q-10 -33 -35.5 -52.5t-58.5 -19.5q-35 0 -60.5 19.5t-35.5 52.5z" />
<glyph unicode="W" horiz-adv-x="1429" d="M45 1223q-3 12 -3 24q0 25 14 49q22 34 61 45q13 3 26 3q27 0 49 -14q34 -21 44 -62q31 -129 63 -264q29 -117 62.5 -256.5t66.5 -270.5q31 131 64.5 270.5t62.5 256.5q33 135 63 264q8 35 35 55t62 20t60.5 -20t33.5 -55q31 -129 63 -264q29 -117 63 -256.5t66 -270.5 q31 131 65 270.5t62 256.5q33 135 64 264q10 40 44 62q22 14 48 15q13 0 27 -4q41 -11 61 -45q13 -22 14 -46q0 -13 -4 -27l-286 -1188q-8 -35 -34 -55.5t-61 -20.5t-61.5 20.5t-34.5 55.5q-31 129 -63 264q-29 117 -63 255t-64 271q-33 -133 -67 -271t-62 -255 q-33 -135 -64 -264q-8 -35 -33.5 -55.5t-60.5 -20.5t-61.5 20.5t-34.5 55.5z" />
<glyph unicode="X" horiz-adv-x="864" d="M32 26q-6 16 -6 32q0 22 11 42l285 572l-265 528q-10 21 -10 43q-1 16 5 33q14 39 48 57q21 10 44 10q16 0 32 -5q39 -13 57 -50l199 -397l199 397q18 36 57 50q16 6 32 6q22 0 42 -11q37 -18 50 -57q5 -16 5 -32q0 -22 -10 -44l-264 -528l284 -572q10 -20 10 -42 q0 -16 -5 -32q-13 -38 -50 -57q-20 -10 -42 -10q-16 0 -32 5q-38 13 -57 48l-219 441l-219 -441q-18 -35 -57 -48q-16 -5 -32 -5q-22 0 -44 10q-34 17 -48 57z" />
<glyph unicode="Y" horiz-adv-x="823" d="M32 1276q13 39 50 57q20 10 42 10q16 0 32 -5q39 -13 57 -50l68 -135q29 -59 63.5 -129t67.5 -133q31 63 66.5 133t64.5 129l67 135q18 37 58 50q16 6 31 6q22 0 42 -11q37 -18 51 -57q5 -16 5 -32q0 -22 -11 -44l-276 -551v-592q0 -41 -28.5 -69.5t-69.5 -28.5t-70 28.5 t-29 69.5v592l-276 551q-10 21 -10 44q0 16 5 32z" />
<glyph unicode="Z" horiz-adv-x="786" d="M49 66q0 23 8 38q96 233 183 437q37 86 73.5 176t70.5 170t62.5 145.5t45.5 106.5h-345q-41 0 -69.5 28.5t-28.5 69.5t28.5 69.5t69.5 28.5h492q51 0 82 -43q16 -27 16 -55q0 -23 -8 -39q-100 -236 -184 -438q-37 -86 -74 -175t-70.5 -169t-61.5 -146.5t-44 -105.5h344 q41 0 69.5 -29t28.5 -69q0 -41 -28.5 -70t-69.5 -29h-492q-51 0 -81 43q-16 27 -17 56z" />
<glyph unicode="[" horiz-adv-x="524" d="M106 -98v1499q0 41 29 69.5t70 28.5h205q41 0 69.5 -28.5t28.5 -69.5t-28.5 -69.5t-69.5 -28.5h-107v-1303h107q41 0 69.5 -28.5t28.5 -69.5t-28.5 -70t-69.5 -29h-205q-41 0 -70 29t-29 70z" />
<glyph unicode="\" d="M88 1294q-14 37 3.5 74t55.5 51q39 14 75 -3t50 -56l492 -1352q16 -39 -1.5 -74.5t-55.5 -50.5q-39 -14 -76 3.5t-51 56.5z" />
<glyph unicode="]" horiz-adv-x="524" d="M16 -98q0 41 29 69.5t70 28.5h106v1303h-106q-41 0 -70 28.5t-29 69.5t29 69.5t70 28.5h204q41 0 70 -28.5t29 -69.5v-1499q0 -41 -29 -70t-70 -29h-204q-41 0 -70 29t-29 70z" />
<glyph unicode="^" horiz-adv-x="1024" d="M91 870.5q-3 40.5 24 71.5l323 369q29 33 74 32q45 0 74 -32l323 -369q27 -31 24 -72t-34 -67q-31 -29 -71 -26t-68 34q-45 51 -90 104q-39 45 -82 93.5t-76 87.5q-35 -39 -77 -87t-81 -94q-45 -53 -90 -104q-29 -31 -68.5 -34t-70.5 26q-31 27 -34 67.5z" />
<glyph unicode="_" horiz-adv-x="1024" d="M-98 -229q0 41 28.5 69.5t69.5 28.5h1024q41 0 69.5 -28.5t28.5 -69.5t-28.5 -70t-69.5 -29h-1024q-41 0 -69.5 29t-28.5 70z" />
<glyph unicode="`" horiz-adv-x="1024" d="M322 1281.5q-1 35.5 22 64.5q25 27 60.5 28.5t64.5 -22.5l205 -185q27 -25 29 -60.5t-23 -64.5q-25 -27 -60.5 -28.5t-62.5 22.5l-205 185q-29 25 -30 60.5z" />
<glyph unicode="a" horiz-adv-x="720" d="M31 270q0 61 23.5 115.5t63.5 94.5t94 63.5t116 23.5h112v109q0 33 -18.5 60.5t-48.5 39.5q-21 8 -42 8q-11 0 -22 -2q-33 -6 -55 -30q-27 -27 -64.5 -27t-64.5 27q-29 29 -29 65.5t29 65.5q63 63 149 81q29 6 57 5q56 0 111 -23q84 -35 133.5 -107.5t49.5 -162.5v-610 q0 -39 -27 -66t-66 -27h-204q-61 0 -115.5 23.5t-94.5 63.5t-63.5 94.5t-23.5 115.5zM215 270q0 -47 33 -79.5t80 -32.5h112v225h-112q-47 0 -80 -33t-33 -80z" />
<glyph unicode="b" horiz-adv-x="794" d="M113 66v1220q0 39 26.5 65.5t65.5 26.5t65.5 -26.5t26.5 -65.5v-325h113q61 0 115.5 -24t94 -63.5t63.5 -94t24 -115.5v-394q0 -61 -24 -115.5t-63.5 -94.5t-94 -63.5t-115.5 -23.5h-205q-39 0 -65.5 27t-26.5 66zM297 158h113q47 0 79.5 32.5t32.5 79.5v394 q0 47 -32.5 79.5t-79.5 32.5h-113v-618z" />
<glyph unicode="c" horiz-adv-x="671" d="M88 262v410q0 92 49 165.5t133 108.5q57 23 115 23q29 1 58 -5q87 -18 151 -83q29 -27 29 -65t-29 -64q-27 -29 -64.5 -29t-64.5 29q-25 24 -59 30q-11 2 -20 2q-22 0 -44 -8q-33 -14 -51.5 -41.5t-18.5 -62.5v-410q0 -35 18.5 -62.5t51.5 -41.5q21 -8 42 -8q10 0 22 2 q34 6 59 30q27 29 64.5 29t64.5 -29q29 -29 29 -65.5t-29 -65.5q-62 -63 -150 -81q-29 -6 -59 -5q-58 0 -115 23q-84 35 -133 108.5t-49 165.5z" />
<glyph unicode="d" horiz-adv-x="794" d="M88 270v394q0 61 23.5 115.5t63.5 94t94.5 63.5t115.5 24h113v325q0 39 26.5 65.5t65.5 26.5t65.5 -26.5t26.5 -65.5v-1220q0 -39 -26.5 -66t-65.5 -27h-205q-61 0 -115.5 23.5t-94.5 63.5t-63.5 94.5t-23.5 115.5zM272 270q0 -47 33 -79.5t80 -32.5h113v618h-113 q-47 0 -80 -32.5t-33 -79.5v-394z" />
<glyph unicode="e" horiz-adv-x="753" d="M88 262v410q0 61 23.5 115.5t63.5 94.5t94.5 63.5t115.5 23.5t115.5 -23.5t94.5 -63.5t63.5 -94.5t23.5 -115.5v-205q0 -39 -26.5 -65.5t-65.5 -26.5h-318v-113q0 -35 18.5 -62.5t51.5 -41.5q22 -8 44 -8q12 0 22 2q32 6 57 30q27 29 64.5 29t66.5 -29q27 -29 27 -65.5 t-27 -65.5q-66 -63 -153 -81q-29 -6 -58 -5q-57 0 -113 23q-86 35 -135 108.5t-49 165.5zM272 559h226v113q0 47 -33 79.5t-80 32.5t-80 -32.5t-33 -79.5v-113z" />
<glyph unicode="f" horiz-adv-x="606" d="M23 868q0 39 26.5 66t65.5 27h71v120q0 61 23.5 115.5t63.5 94.5t94.5 63.5t115.5 23.5q39 0 65.5 -26.5t26.5 -65.5t-26.5 -65.5t-65.5 -26.5q-47 0 -79.5 -33t-32.5 -80v-120h112q39 0 65.5 -27t26.5 -66t-26.5 -65.5t-65.5 -26.5h-112v-719q0 -39 -27 -65.5t-65 -26.5 q-39 0 -66 26.5t-27 65.5v719h-71q-39 0 -65.5 26.5t-26.5 65.5z" />
<glyph unicode="g" horiz-adv-x="786" d="M88 270v394q0 61 23.5 115.5t63.5 94t94.5 63.5t115.5 24h205q39 0 65.5 -27t26.5 -66v-1015q0 -92 -49 -166t-133 -109q-57 -23 -115 -23q-29 0 -58 5q-87 18 -151 82q-29 29 -29 65.5t29 65.5q27 29 64 29h1q38 -1 64 -29q25 -25 59 -31q11 -2 22 -2q21 0 42 8 q33 14 51.5 42t18.5 63v120h-113q-61 0 -115.5 23.5t-94.5 63.5t-63.5 94.5t-23.5 115.5zM272 270q0 -47 33 -79.5t80 -32.5h113v618h-113q-47 0 -80 -32.5t-33 -79.5v-394z" />
<glyph unicode="h" horiz-adv-x="802" d="M113 57v1229q0 39 26.5 65.5t65.5 26.5t65.5 -26.5t26.5 -65.5v-325h113q61 0 115.5 -24t94 -63.5t63.5 -94t24 -115.5v-607q0 -39 -27 -65.5t-66 -26.5t-65.5 26.5t-26.5 65.5v607q0 47 -32.5 79.5t-79.5 32.5h-113v-719q0 -39 -26.5 -65.5t-65.5 -26.5t-65.5 26.5 t-26.5 65.5z" />
<glyph unicode="i" horiz-adv-x="409" d="M92 1184q0 47 33 79.5t80 32.5t79.5 -32.5t32.5 -79.5t-32.5 -80t-79.5 -33t-80 33t-33 80zM113 57v820q0 39 26.5 65.5t65.5 26.5t65.5 -27t26.5 -65v-820q0 -39 -26.5 -65.5t-65.5 -26.5t-65.5 26.5t-26.5 65.5z" />
<glyph unicode="j" horiz-adv-x="425" d="M-76 -352q0 39 26.5 65.5t65.5 26.5q47 0 80 32.5t33 80.5v1024q0 39 26.5 65.5t65.5 26.5t65.5 -27t26.5 -65v-1024q0 -61 -23.5 -115.5t-63.5 -94.5t-94.5 -63.5t-115.5 -23.5q-39 0 -65.5 26.5t-26.5 65.5zM109 1184q0 47 32.5 79.5t79.5 32.5t80 -32.5t33 -79.5 t-33 -80t-80 -33t-79.5 33t-32.5 80z" />
<glyph unicode="k" horiz-adv-x="778" d="M113 57v1229q0 39 26.5 65.5t65.5 26.5t65.5 -26.5t26.5 -65.5v-672l289 324q26 29 64 31h6q34 0 61 -25q29 -24 31 -62v-6q0 -34 -25 -61l-236 -264l248 -449q12 -22 12 -46q0 -14 -4 -26q-10 -36 -45 -53q-22 -12 -46 -12q-12 0 -24 3q-36 9 -55 44l-215 394l-61 -68 v-281q0 -39 -26.5 -65.5t-65.5 -26.5t-65.5 26.5t-26.5 65.5z" />
<glyph unicode="l" horiz-adv-x="409" d="M106 199v1087q0 39 28 65.5t65 26.5q39 0 65.5 -26.5t26.5 -65.5v-1087q0 -41 37 -62q33 -20 43 -56q3 -12 3 -23q0 -24 -14 -48q-18 -33 -54 -42q-12 -3 -24 -3q-24 0 -46 12q-59 35 -94.5 94.5t-35.5 127.5z" />
<glyph unicode="m" horiz-adv-x="1212" d="M113 57v811q0 39 26.5 66t65.5 27h614q61 0 114.5 -24t94.5 -63.5t64.5 -94t23.5 -115.5v-607q0 -39 -27.5 -65.5t-64.5 -26.5q-39 0 -65.5 26.5t-26.5 65.5v607q0 47 -33 79.5t-80 32.5h-112v-719q0 -39 -28 -65.5t-65 -26.5q-39 0 -65.5 26.5t-26.5 65.5v719h-225v-719 q0 -39 -27.5 -65.5t-64.5 -26.5q-39 0 -65.5 26.5t-26.5 65.5z" />
<glyph unicode="n" horiz-adv-x="802" d="M113 57v811q0 39 26.5 66t65.5 27h205q61 0 115.5 -24t94 -63.5t63.5 -94t24 -115.5v-607q0 -39 -28 -65.5t-65 -26.5q-39 0 -65.5 26.5t-26.5 65.5v607q0 47 -32.5 79.5t-79.5 32.5h-113v-719q0 -39 -27.5 -65.5t-64.5 -26.5q-39 0 -65.5 26.5t-26.5 65.5z" />
<glyph unicode="o" horiz-adv-x="770" d="M88 262v410q0 61 23.5 115.5t63.5 94.5t94.5 63.5t115.5 23.5t115.5 -23.5t94.5 -63.5t63.5 -94.5t23.5 -115.5v-410q0 -61 -23.5 -115.5t-63.5 -94.5t-94.5 -63.5t-115.5 -23.5t-115.5 23.5t-94.5 63.5t-63.5 94.5t-23.5 115.5zM272 262q0 -47 33 -79.5t80 -32.5 t80 32.5t33 79.5v410q0 47 -33 79.5t-80 32.5t-80 -32.5t-33 -79.5v-410z" />
<glyph unicode="p" horiz-adv-x="794" d="M113 -352v1220q0 39 26.5 66t65.5 27h205q61 0 115.5 -24t94 -63.5t63.5 -94t24 -115.5v-394q0 -61 -24 -115.5t-63.5 -94.5t-94 -63.5t-115.5 -23.5h-113v-325q0 -39 -26.5 -65.5t-65.5 -26.5t-65.5 26.5t-26.5 65.5zM297 158h113q47 0 79.5 32.5t32.5 79.5v394 q0 47 -32.5 79.5t-79.5 32.5h-113v-618z" />
<glyph unicode="q" horiz-adv-x="794" d="M88 270v394q0 61 23.5 115.5t63.5 94t94.5 63.5t115.5 24h205q39 0 65.5 -27t26.5 -66v-1220q0 -39 -26.5 -65.5t-65.5 -26.5t-65.5 26.5t-26.5 65.5v325h-113q-61 0 -115.5 23.5t-94.5 63.5t-63.5 94.5t-23.5 115.5zM272 270q0 -47 33 -79.5t80 -32.5h113v618h-113 q-47 0 -80 -32.5t-33 -79.5v-394z" />
<glyph unicode="r" horiz-adv-x="612" d="M113 57v811q0 39 26.5 66t65.5 27h205q76 0 147 -39q35 -20 44 -56q3 -12 3 -25q0 -24 -12 -46q-20 -33 -56 -43q-12 -4 -24 -4q-24 0 -47 14q-29 14 -55 14h-113v-719q0 -39 -26.5 -65.5t-65.5 -26.5t-65.5 26.5t-26.5 65.5z" />
<glyph unicode="s" horiz-adv-x="673" d="M69 178q9 36 42 55q23 12 47 12q12 0 24 -3q36 -9 56 -41q23 -43 71 -49q10 -2 19 -2q34 0 63 26q33 28 33 71v9q-4 51 -41 76l-193 133q-51 37 -81.5 91t-34.5 118q-1 9 -1 18q1 54 21 104q24 58 70 101q46 41 106 59q39 12 79 13q22 0 44 -4q61 -10 112.5 -45t84.5 -91 q12 -22 12 -46q0 -11 -3 -23q-9 -36 -44 -55q-22 -12 -46 -12q-11 0 -23 3q-36 9 -56 41q-23 39 -65 45q-9 2 -17 2q-31 0 -59 -24q-31 -26 -32 -65q0 -4 1 -9q4 -43 39 -70l190 -133q53 -39 85 -94t36 -121q1 -10 0 -19q0 -56 -20 -106q-24 -59 -72 -104q-46 -43 -108 -61 q-40 -12 -82 -13q-22 0 -45 4q-66 10 -118 46t-85 94q-12 22 -12 46q0 11 3 23z" />
<glyph unicode="t" horiz-adv-x="606" d="M23 868q0 39 26.5 66t65.5 27h71v325q0 39 27 65.5t66 26.5t65.5 -26.5t26.5 -65.5v-325h112q39 0 65.5 -27t26.5 -66t-26.5 -65.5t-65.5 -26.5h-112v-514q0 -47 32.5 -79.5t79.5 -32.5q39 0 65.5 -27t26.5 -66t-26.5 -65.5t-65.5 -26.5q-61 0 -115.5 23.5t-94.5 63.5 t-63.5 94.5t-23.5 115.5v514h-71q-39 0 -65.5 26.5t-26.5 65.5z" />
<glyph unicode="u" horiz-adv-x="802" d="M96 270v607q0 39 27 65.5t65 26.5q39 0 66 -27t27 -65v-607q0 -47 32.5 -79.5t79.5 -32.5h113v719q0 39 26.5 65.5t65.5 26.5t65.5 -27t26.5 -65v-811q0 -39 -26.5 -66t-65.5 -27h-205q-61 0 -115.5 23.5t-94.5 63.5t-63.5 94.5t-23.5 115.5z" />
<glyph unicode="v" horiz-adv-x="757" d="M45 850q-4 13 -4 26q-1 22 11 44q18 34 54 45q13 4 27 4q23 1 44 -11q34 -18 44 -55q25 -84 51 -172q23 -76 50.5 -168t56.5 -184q29 92 56.5 184t49.5 168q27 88 52 172q9 37 43 55q21 11 45 11q13 0 26 -4q37 -10 55 -44q11 -22 10 -44q0 -13 -3 -27l-246 -819 q-8 -29 -32.5 -47.5t-55.5 -18.5t-54.5 18.5t-33.5 47.5z" />
<glyph unicode="w" horiz-adv-x="1101" d="M51 854q-3 13 -3 25q0 23 12 45q20 32 57 43q12 3 24 3q23 0 45 -14q32 -20 43 -57q16 -68 37 -145q16 -66 36 -149t42 -169q23 86 43.5 169t36.5 149q20 78 37 145q8 31 32.5 50.5t55.5 19.5q33 0 57.5 -19.5t32.5 -50.5q16 -68 37 -145q16 -66 35.5 -149t42.5 -169 q23 86 43 169t37 149q20 78 36 145q10 37 42 57q22 14 45 14q12 0 24 -3q37 -10 57 -43q14 -22 14 -46q0 -12 -3 -24l-205 -819q-8 -31 -33 -50.5t-57 -19.5q-31 0 -55.5 19.5t-32.5 50.5q-16 68 -37 145q-16 66 -37 148t-43 168q-23 -86 -42.5 -168t-35.5 -148 q-20 -78 -37 -145q-8 -31 -32.5 -50.5t-57.5 -19.5q-31 0 -55.5 19.5t-32.5 50.5z" />
<glyph unicode="x" horiz-adv-x="737" d="M51 30q-4 13 -4 27q0 23 12 45l205 373l-196 356q-12 22 -12 45q0 13 4 26q10 36 44 54q21 12 44 12q13 0 26 -4q37 -10 55 -42l140 -256l141 256q18 33 54 43q12 3 25 3q23 0 46 -12q35 -18 45 -54q4 -13 4 -26q0 -23 -12 -45l-197 -356l205 -373q12 -22 11 -46 q0 -14 -3 -26q-10 -36 -45 -53q-23 -12 -47 -12q-12 0 -24 3q-36 9 -54 44l-149 271l-148 -271q-18 -35 -55 -44q-12 -3 -24 -3q-24 0 -46 12q-35 15 -45 53z" />
<glyph unicode="y" horiz-adv-x="755" d="M10 -352q0 39 26.5 65.5t65.5 26.5t69 22.5t40 57.5l70 237l-238 793q-4 13 -4 26q0 23 13 44q18 34 54 45q13 4 25 4q22 0 44 -11q34 -18 46 -55l156 -524l158 524q10 37 45 55q21 11 44 11q12 0 25 -4q37 -10 55 -44q13 -22 13 -45q0 -13 -4 -26l-248 -819l-78 -264 q-29 -96 -106 -152q-83 -59 -179 -59q-39 0 -65.5 26.5t-26.5 65.5z" />
<glyph unicode="z" horiz-adv-x="704" d="M55 66q0 25 8 40q70 137 136 265q27 53 56.5 110.5t57 110.5t51 101t42.5 83h-259q-39 0 -65.5 26.5t-26.5 65.5t27 66t65 27h410q51 0 78 -46q14 -25 14 -47q0 -18 -10 -43q-70 -137 -135 -264q-29 -53 -57.5 -110.5t-56.5 -110.5t-51.5 -100t-41.5 -82h260 q37 0 64.5 -27t27.5 -65q0 -39 -27.5 -66t-64.5 -27h-410q-53 0 -79 43q-13 25 -13 50z" />
<glyph unicode="{" horiz-adv-x="524" d="M0 672q0 41 28.5 69.5t69.5 28.5q29 0 47.5 18.5t18.5 47.5v409q0 55 20.5 102.5t56 83t83 56t102.5 20.5q41 0 69.5 -28.5t28.5 -69.5t-28.5 -69.5t-69.5 -28.5q-29 0 -47.5 -18.5t-18.5 -47.5v-409q0 -47 -15 -88t-42 -76q27 -35 42 -76t15 -88v-451q0 -29 18.5 -47 t47.5 -18q41 0 69.5 -29t28.5 -69q0 -41 -28.5 -70t-69.5 -29q-55 0 -102.5 20.5t-83 56.5t-56 83t-20.5 102v451q0 29 -18.5 47t-47.5 18q-41 0 -69.5 29t-28.5 70z" />
<glyph unicode="|" horiz-adv-x="425" d="M125 -352v2048q0 41 28.5 69.5t69.5 28.5t70 -28.5t29 -69.5v-2048q0 -41 -29 -70t-70 -29t-69.5 29t-28.5 70z" />
<glyph unicode="}" horiz-adv-x="524" d="M0 -106q0 41 28.5 69.5t69.5 28.5q27 0 46.5 18.5t19.5 46.5v451q0 94 57 164q-57 70 -57 164v409q0 29 -19.5 47.5t-46.5 18.5q-41 0 -69.5 28.5t-28.5 69.5t28.5 69.5t69.5 28.5q53 0 101.5 -20.5t84 -56t56 -83t20.5 -102.5v-409q0 -29 18.5 -47.5t47.5 -18.5 q41 0 69.5 -28.5t28.5 -69.5t-28.5 -70t-69.5 -29q-29 0 -47.5 -18t-18.5 -47v-451q0 -55 -20.5 -102t-56 -83t-83.5 -56.5t-102 -20.5q-41 0 -69.5 29t-28.5 70z" />
<glyph unicode="~" d="M58 477.5q-7 36.5 14 69.5q33 47 81 78.5t103 42.5q119 18 215 -52l25 -18q33 -27 69 -16q41 6 60 39q23 33 60.5 41t70.5 -15q31 -23 39 -60.5t-15 -68.5q-31 -47 -79 -78.5t-105 -42.5q-55 -10 -110.5 3.5t-102.5 48.5l-25 18q-33 23 -69 16q-39 -6 -62 -39t-59.5 -41 t-69.5 15t-40 59.5z" />
<glyph unicode="&#xa1;" horiz-adv-x="409" d="M86 856q0 49 35 84t84 35t84 -35t35 -84t-35 -84t-84 -35t-84 35t-35 84zM106 -270v819q0 41 29 69.5t70 28.5t69.5 -28.5t28.5 -69.5v-819q0 -41 -28.5 -70t-69.5 -29t-70 29t-29 70z" />
<glyph unicode="&#xa2;" d="M152 262v410q0 92 50 169t136 111l18 6v82q0 41 29 70t70 29t69.5 -29t28.5 -70v-82q66 -23 115 -71q29 -29 28.5 -70t-28.5 -69q-29 -29 -70 -29t-70 29q-29 31 -73 30h-2q-23 0 -39 -8q-31 -12 -48.5 -38.5t-17.5 -59.5v-410q0 -33 17.5 -59.5t48.5 -38.5q16 -8 39 -8 h2q45 0 73 30q29 29 70 29t70 -29t28.5 -69.5t-28.5 -69.5q-49 -49 -115 -72v-81q0 -41 -28.5 -70t-69.5 -29t-70 29t-29 70v81l-18 7q-86 35 -136 111.5t-50 168.5z" />
<glyph unicode="&#xa3;" d="M41 672q0 41 28.5 69.5t69.5 28.5h66v270q0 104 62.5 185.5t162.5 107.5q100 27 194.5 -12t145.5 -129q23 -35 11.5 -74t-46.5 -61q-35 -20 -73.5 -9t-61.5 46q-16 31 -50 45t-69 4t-57.5 -39t-22.5 -64v-270h148q41 0 69.5 -28.5t28.5 -69.5t-28.5 -70t-69.5 -29h-148 v-276q0 -74 -26 -133h338q41 0 69.5 -29t28.5 -69q0 -41 -28.5 -70t-69.5 -29h-574q-35 0 -62.5 23.5t-33.5 58.5t11.5 65.5t51.5 43.5q45 16 72 54t27 85v276h-66q-41 0 -69.5 29t-28.5 70z" />
<glyph unicode="&#xa4;" horiz-adv-x="1433" d="M72 322v608q0 2 2 4v2q0 2 2 4v2l248 426q10 20 32 10l744 -370l2 -2h2l248 -181q10 -6 10 -20v-606q0 -16 -14 -23l-123 -61l-248 -125l-125 -62l-2 -2h-2q-2 -2 -6 -2q-6 0 -6 2h-2q-2 0 -5 2l-743 371q-14 6 -14 23zM123 336l694 -346v553l-694 346v-553zM131 940 l700 -350l224 385l-701 348zM287 453v252q0 12 12 22q10 6 25 0l299 -149q14 -8 14 -23v-252q0 -16 -12 -22q-8 -4 -13 -5q-4 0 -12 5l-299 149q-14 6 -14 23zM338 467l250 -125v199l-250 125v-199zM866 -10l74 37v591q0 14 14 23l248 125q8 6 25 -2q10 -6 10 -21l2 -567 l74 37v580l-217 155l-230 -397v-561zM989 51l201 101l-2 550l-199 -98v-553z" />
<glyph unicode="&#xa5;" d="M46 1276q13 39 48 57q37 18 76 5t57 -50l68 -135q29 -59 63.5 -129t67.5 -133q31 63 66.5 133t64.5 129l68 135q18 37 57 50.5t74 -5.5q37 -18 50 -57t-5 -76l-215 -430h94q41 0 69.5 -28.5t28.5 -69.5t-28.5 -70t-69.5 -29h-156v-131h156q41 0 69.5 -28.5t28.5 -69.5 t-28.5 -69.5t-69.5 -28.5h-156v-189q0 -41 -28.5 -69.5t-69.5 -28.5t-69.5 28.5t-28.5 69.5v189h-140q-41 0 -69.5 28.5t-28.5 69.5t28.5 69.5t69.5 28.5h140v131h-140q-41 0 -69.5 29t-28.5 70t28.5 69.5t69.5 28.5h78l-215 430q-18 37 -5 76z" />
<glyph unicode="&#xa6;" horiz-adv-x="425" d="M115 -352v819q0 41 28.5 69.5t69.5 28.5t69.5 -28.5t28.5 -69.5v-819q0 -41 -28.5 -70t-69.5 -29t-69.5 29t-28.5 70zM115 877v819q0 41 28.5 69.5t69.5 28.5t69.5 -28.5t28.5 -69.5v-819q0 -41 -28.5 -70t-69.5 -29t-69.5 29t-28.5 70z" />
<glyph unicode="&#xa7;" d="M137 764q16 82 68 139q-45 63 -49 152q0 63 25.5 120.5t72.5 98.5q49 41 109.5 58.5t123.5 6.5q61 -10 112.5 -46t84.5 -91q20 -35 9 -73.5t-46 -61.5q-35 -20 -73.5 -9t-59.5 46q-14 23 -31.5 31t-29.5 10q-10 4 -30 1t-40 -20q-20 -16 -25.5 -35.5t-5.5 -31.5 q2 -10 7.5 -29.5t25.5 -36.5l229 -182q61 -49 90 -122t13 -150q-16 -82 -68 -140q47 -70 47 -151q2 -66 -23.5 -123t-72.5 -98q-102 -86 -233 -64q-61 10 -112.5 46t-84.5 91q-20 35 -9 74t46 62q35 20 73.5 8.5t59.5 -45.5q14 -23 31.5 -31t27.5 -10q12 -4 32 -1t40 19 t25.5 35.5t3.5 32.5q0 10 -5.5 29.5t-25.5 35.5l-229 183q-63 49 -91 121.5t-12 150.5zM330 729q-10 -51 30 -84l144 -113q14 16 20 41q10 51 -30 84l-144 113q-14 -16 -20 -41z" />
<glyph unicode="&#xa8;" horiz-adv-x="1024" d="M236 1184q0 47 32.5 79.5t79.5 32.5t80 -32.5t33 -79.5t-33 -80t-80 -33t-79.5 33t-32.5 80zM563 1184q0 47 33 79.5t80 32.5t79.5 -32.5t32.5 -79.5t-32.5 -80t-79.5 -33t-80 33t-33 80z" />
<glyph unicode="&#xa9;" horiz-adv-x="1470" d="M49 651q0 139 51.5 263t149.5 223q98 98 223 149t262 51q139 0 264 -51t224 -149q98 -98 149 -222.5t51 -263.5t-51 -263t-149 -222t-223.5 -150.5t-264.5 -52.5q-137 0 -262 52.5t-223 150.5t-149.5 222t-51.5 263zM236 651q0 -100 37.5 -191t109.5 -163t162 -109.5 t190 -37.5q102 0 192.5 37.5t162.5 109.5t109.5 163t37.5 191t-38 191.5t-109 163.5q-72 72 -162 108.5t-193 36.5q-100 0 -190 -37t-162 -108q-72 -72 -109.5 -163t-37.5 -192zM479 508v287q0 88 52.5 156.5t138.5 90.5q86 23 165.5 -10t122.5 -108q20 -35 10 -72t-44 -55 q-33 -20 -70 -11t-57 43q-10 23 -32.5 31t-45.5 2q-53 -14 -53 -67v-287q0 -25 14 -43.5t39 -24.5q23 -6 45 2.5t33 30.5q20 33 57 43t70 -10q35 -18 45 -55t-11 -72q-43 -76 -122.5 -108.5t-165.5 -10.5q-86 23 -138.5 91.5t-52.5 156.5z" />
<glyph unicode="&#xaa;" horiz-adv-x="624" d="M82 815q0 47 18.5 89t50 74t73.5 50.5t89 18.5h56v55q0 18 -11.5 33.5t-29.5 19.5q-41 10 -62 -27q-18 -31 -54 -40t-67 8q-33 18 -42 54t10 69q39 68 111.5 98.5t148.5 7.5q78 -20 125 -82.5t47 -140.5v-430q0 -37 -25.5 -62.5t-62.5 -25.5h-144q-47 0 -89 18.5 t-73.5 50t-50 73.5t-18.5 89zM258 815q0 -23 16.5 -39t38.5 -16h56v110h-56q-23 0 -39 -16t-16 -39z" />
<glyph unicode="&#xab;" horiz-adv-x="858" d="M78 549q-27 47 0 96l131 238q20 35 59 47t76 -8q49 -29 49 -86q0 -27 -12 -48q-20 -37 -41 -73q-16 -31 -33.5 -62.5t-30.5 -54.5q12 -25 32 -59.5t38 -67.5q23 -37 43 -80q12 -23 12 -47q0 -57 -49 -86q-37 -20 -75.5 -8t-59.5 47zM446 549q-27 47 0 96l132 238 q20 35 59 47t76 -8q49 -29 49 -86q0 -27 -12 -48q-20 -37 -41 -73q-16 -31 -34 -62.5t-30 -54.5q12 -25 31.5 -59.5t38.5 -67.5q23 -37 43 -80q12 -23 12 -47q0 -57 -49 -86q-37 -20 -76 -8t-59 47z" />
<glyph unicode="&#xac;" d="M82 590q0 41 28.5 69.5t69.5 28.5h492q41 0 69.5 -28.5t28.5 -69.5v-246q0 -41 -28.5 -69.5t-69.5 -28.5t-70 28.5t-29 69.5v148h-393q-41 0 -69.5 28.5t-28.5 69.5z" />
<glyph unicode="&#xad;" d="M82 590q0 41 28.5 69.5t69.5 28.5h492q41 0 69.5 -28.5t28.5 -69.5t-28.5 -69.5t-69.5 -28.5h-492q-41 0 -69.5 28.5t-28.5 69.5z" />
<glyph unicode="&#xae;" horiz-adv-x="1470" d="M49 651q0 139 51.5 263t149.5 223q98 98 223 149t262 51q139 0 264 -51t224 -149q98 -98 149 -222t51 -264q0 -139 -51 -263t-149 -222t-223.5 -150.5t-264.5 -52.5q-137 0 -262 52.5t-223 150.5t-149.5 222t-51.5 263zM236 651q0 -100 37.5 -191t109.5 -163t162 -109.5 t190 -37.5q102 0 192.5 37.5t162.5 109.5t109.5 163t37.5 191t-38 191.5t-109 163.5q-72 72 -162 108.5t-193 36.5q-100 0 -190 -37t-162 -108q-72 -72 -109.5 -163t-37.5 -192zM500 344v606q0 39 26.5 65.5t65.5 26.5h164q53 0 100 -20.5t82 -55t55.5 -81t20.5 -99.5 q0 -68 -32 -124t-85 -91l104 -180q18 -35 9 -71.5t-43 -57.5q-35 -18 -72 -8t-55 43l-133 231h-21v-184q0 -39 -26.5 -66.5t-67.5 -27.5q-39 0 -65.5 27.5t-26.5 66.5zM686 715h70q29 0 50 21.5t21 49.5q0 29 -21.5 49.5t-49.5 20.5h-70v-141z" />
<glyph unicode="&#xaf;" horiz-adv-x="1024" d="M-98 1532q0 41 28.5 69.5t69.5 28.5h1024q41 0 69.5 -28.5t28.5 -69.5t-28.5 -69.5t-69.5 -28.5h-1024q-41 0 -69.5 28.5t-28.5 69.5z" />
<glyph unicode="&#xb0;" horiz-adv-x="641" d="M49 1061q0 55 21.5 105.5t58.5 87t86 58t107 21.5q55 0 105 -21.5t87 -58t58.5 -87t21.5 -105.5q0 -57 -21.5 -106.5t-58.5 -86.5t-87 -58.5t-105 -21.5q-57 0 -106.5 21.5t-86.5 58.5t-58.5 86.5t-21.5 106.5zM225 1061q0 -41 28 -68.5t69 -27.5t68.5 27.5t27.5 68.5 t-28 68.5t-68 27.5q-41 0 -69 -27.5t-28 -68.5z" />
<glyph unicode="&#xb1;" d="M82 66q0 41 28.5 69.5t69.5 28.5h492q41 0 69.5 -29t28.5 -69q0 -41 -28.5 -70t-69.5 -29h-492q-41 0 -69.5 29t-28.5 70zM82 590q0 41 28.5 69.5t69.5 28.5h148v148q0 41 28.5 69.5t69.5 28.5t69.5 -28.5t28.5 -69.5v-148h148q41 0 69.5 -28.5t28.5 -69.5t-28.5 -69.5 t-69.5 -28.5h-148v-148q0 -41 -28.5 -69.5t-69.5 -28.5t-69.5 28.5t-28.5 69.5v148h-148q-41 0 -69.5 28.5t-28.5 69.5z" />
<glyph unicode="&#xb2;" horiz-adv-x="608" d="M82 642.5q0 23.5 14 43.5l246 387q12 23 6 41q-6 23 -24 35t-43 6t-33 -27q-18 -31 -54 -40t-67 8q-33 18 -42 54t9 69q47 84 144 108q96 23 178 -27q82 -51 104 -145q23 -96 -28 -178l-16 -23q-15 -22 -38.5 -59t-51.5 -81t-54 -87h106q37 0 62.5 -25.5t25.5 -62.5 t-25.5 -62.5t-62.5 -25.5h-268q-51 0 -78 45q-10 23 -10 46.5z" />
<glyph unicode="&#xb3;" horiz-adv-x="606" d="M83 725q9 35 42 53q31 18 66.5 9t54.5 -39q20 -37 61 -27q18 4 29.5 19.5t11.5 33.5v41q0 23 -16.5 39t-38.5 16q-37 0 -62.5 26t-25.5 62q0 37 25.5 63t62.5 26q31 0 47 28q16 27 0 53q-16 29 -47 29t-47 -29q-18 -31 -54 -40t-67 8q-33 18 -42 54t9 69q31 53 85 83.5 t116 30.5q61 0 115.5 -30.5t85.5 -83.5t31 -117t-31 -117q-4 -6 -9.5 -13t-9.5 -14q49 -61 49 -143v-41q0 -78 -47 -140.5t-125 -82.5q-76 -23 -148.5 8t-111.5 98q-18 33 -9 68z" />
<glyph unicode="&#xb4;" horiz-adv-x="1024" d="M322.5 1107q1.5 36 29.5 60l205 185q27 25 62.5 22.5t60.5 -28.5q25 -29 23.5 -65t-29.5 -60l-205 -185q-27 -25 -63.5 -22.5t-59.5 28.5q-25 29 -23.5 65z" />
<glyph unicode="&#xb5;" horiz-adv-x="819" d="M113 -352v1229q0 39 26.5 65.5t65.5 26.5t65.5 -27t26.5 -65v-615q0 -47 32.5 -79.5t80.5 -32.5q47 0 79.5 32.5t32.5 79.5v615q0 39 26.5 65.5t65.5 26.5t66 -27t27 -65v-820q0 -39 -27 -65.5t-66 -26.5q-43 0 -69 33q-66 -33 -135 -33q-57 0 -113 23v-340 q0 -39 -26.5 -65.5t-65.5 -26.5t-65.5 26.5t-26.5 65.5z" />
<glyph unicode="&#xb6;" horiz-adv-x="983" d="M39 991q0 70 26.5 131.5t72.5 107.5t107.5 72.5t131.5 26.5h512q39 0 66.5 -26.5t27.5 -65.5t-27.5 -66.5t-66.5 -27.5h-49v-1249q0 -39 -28 -67t-67 -28t-65.5 28t-26.5 67v1249h-100v-1249q0 -39 -27.5 -67t-66.5 -28t-65.5 28t-26.5 67v759q-68 2 -128.5 29t-104.5 73 t-69.5 107.5t-25.5 128.5zM225 991q0 -59 41 -103t101 -48v303q-59 -4 -100.5 -48.5t-41.5 -103.5z" />
<glyph unicode="&#xb7;" horiz-adv-x="393" d="M78 795q0 49 35 83.5t84 34.5t83.5 -34.5t34.5 -83.5t-34.5 -84t-83.5 -35t-84 34.5t-35 84.5z" />
<glyph unicode="&#xb8;" horiz-adv-x="1024" d="M338.5 -185q11.5 40 46.5 60q33 20 33 57v125q0 41 28.5 70t69.5 29t69.5 -29t28.5 -70v-125q0 -72 -34.5 -132t-96.5 -95q-35 -20 -73.5 -10t-59.5 45q-23 35 -11.5 75z" />
<glyph unicode="&#xb9;" horiz-adv-x="479" d="M24.5 1063q0.5 37 26.5 63l180 183q20 18 46 23t53 -5q25 -10 39 -32.5t14 -49.5v-614q0 -37 -25.5 -62.5t-62.5 -25.5t-62.5 25.5t-25.5 62.5v401l-9 -9t-10 -9l-12 -13q-27 -27 -63.5 -26.5t-61.5 26.5q-27 25 -26.5 62z" />
<glyph unicode="&#xba;" horiz-adv-x="624" d="M82 815v287q0 47 18.5 89t50 73.5t73.5 50t89 18.5t89 -18.5t74 -50t50.5 -73.5t18.5 -89v-287q0 -47 -18.5 -89t-50.5 -73.5t-74 -50t-89 -18.5t-89 18.5t-73.5 50t-50 73.5t-18.5 89zM258 815q0 -23 16 -39t39 -16t39.5 16.5t16.5 38.5v287q0 23 -16.5 39t-39.5 16 t-39 -16.5t-16 -38.5v-287z" />
<glyph unicode="&#xbb;" horiz-adv-x="858" d="M88 344q0 25 12 47q23 43 45 80q18 33 37 67.5t33 59.5q-14 23 -31.5 54.5t-33.5 62.5q-20 37 -41 73q-12 20 -13 48q0 57 51 86q35 20 75 8t59 -47l131 -238q27 -49 0 -96l-140 -252q-18 -35 -58 -47t-75 8q-51 29 -51 86zM457 344q0 25 12 47q23 43 45 80 q18 33 36.5 67.5t33.5 59.5q-14 23 -31.5 54.5t-34.5 62.5q-20 37 -41 73q-12 20 -12 48q0 57 51 86q35 20 75 8t58 -47l131 -238q27 -49 0 -96l-139 -252q-18 -35 -58 -47t-75 8q-51 29 -51 86z" />
<glyph unicode="&#xbc;" horiz-adv-x="1224" d="M24.5 1063q0.5 37 26.5 63l180 183q20 18 46 23t53 -5q25 -10 39 -32.5t14 -49.5v-614q0 -37 -25.5 -62.5t-62.5 -25.5t-62.5 25.5t-25.5 62.5v401l-9 -9t-10 -9l-12 -13q-27 -27 -63.5 -26.5t-61.5 26.5q-27 25 -26.5 62zM201.5 24q-13.5 39 5.5 76l573 1188 q16 37 55 50t76 -5q37 -16 50.5 -55t-5.5 -76l-573 -1188q-16 -37 -55 -50t-76 5q-37 16 -50.5 55zM645 254l182 451q14 35 47 49t68 0q27 -10 41 -33t14 -49q0 -18 -6 -33q-25 -59 -47 -117q-20 -49 -42.5 -106.5t-43.5 -106.5h45v35q0 37 25.5 62.5t62.5 25.5t62.5 -25.5 t25.5 -62.5v-35h19q37 0 62.5 -25.5t25.5 -62.5t-25.5 -62.5t-62.5 -25.5h-19v-76q0 -37 -25.5 -62.5t-62.5 -25.5t-62.5 25.5t-25.5 62.5v76h-176q-47 0 -74 39q-27 41 -8 82z" />
<glyph unicode="&#xbd;" horiz-adv-x="1220" d="M24.5 1063q0.5 37 26.5 63l180 183q20 18 46 23t53 -5q25 -10 39 -32.5t14 -49.5v-614q0 -37 -25.5 -62.5t-62.5 -25.5t-62.5 25.5t-25.5 62.5v401l-9 -9t-10 -9l-12 -13q-27 -27 -63.5 -26.5t-61.5 26.5q-27 25 -26.5 62zM201.5 24q-13.5 39 5.5 76l573 1188 q16 37 55 50t76 -5q37 -16 50.5 -55t-5.5 -76l-573 -1188q-16 -37 -55 -50t-76 5q-37 16 -50.5 55zM737.5 69q-0.5 23 14.5 44l245 387q12 23 7 41q-6 23 -25 34q-18 12 -43 7q-25 -6 -33 -27q-18 -31 -54 -40t-67 7q-33 18 -42 54t10 69q47 84 143 109q96 23 178 -27 q82 -51 105 -145q22 -97 -29 -179l-15 -23q-16 -22 -39.5 -58.5t-51 -80.5t-54.5 -87h107q37 0 62.5 -26t25.5 -62q0 -37 -26 -63t-62 -26h-269q-51 0 -77 46q-10 23 -10.5 46z" />
<glyph unicode="&#xbe;" horiz-adv-x="1286" d="M44 725q9 35 42 53q31 18 66.5 9t54.5 -39q20 -37 61 -27q18 4 29.5 19.5t11.5 33.5v41q0 23 -16.5 39t-38.5 16q-37 0 -62.5 26t-25.5 62q0 37 25.5 63t62.5 26q31 0 47 28q16 27 0 53q-16 29 -47 29t-47 -29q-18 -31 -54 -40t-67 8q-33 18 -42 54t9 69q31 53 85.5 83.5 t115.5 30.5t115.5 -30.5t85.5 -83.5t30.5 -117t-30.5 -117q-4 -6 -9.5 -13t-9.5 -14q49 -61 49 -143v-41q0 -78 -47 -140.5t-125 -82.5q-76 -23 -148.5 8t-111.5 98q-18 33 -9 68zM263 24q-13 39 5 76l574 1188q16 37 55 50t76 -5q37 -16 50 -55t-5 -76l-574 -1188 q-16 -37 -55 -50t-76 5q-37 16 -50 55zM707 254l182 451q14 35 47 49t68 0q27 -10 41 -33t14 -49q0 -18 -6 -33q-25 -59 -47 -117q-20 -49 -43 -106.5t-43 -106.5h45v35q0 37 25.5 62.5t62.5 25.5t62.5 -25.5t25.5 -62.5v-35h18q37 0 62.5 -25.5t25.5 -62.5t-25.5 -62.5 t-62.5 -25.5h-18v-76q0 -37 -25.5 -62.5t-62.5 -25.5t-62.5 25.5t-25.5 62.5v76h-177q-47 0 -73 39q-27 41 -8 82z" />
<glyph unicode="&#xbf;" horiz-adv-x="731" d="M51 -90q-6 74 19.5 143.5t79.5 122.5l104 105q41 45 41 104v164q0 41 28.5 69.5t69.5 28.5t70 -28.5t29 -69.5v-164q0 -139 -99 -242l-104 -104q-47 -47 -43 -115q6 -70 59 -106q51 -41 117 -29q63 12 100 72q20 35 59.5 46t73.5 -9q35 -23 46.5 -62t-9.5 -74 q-37 -66 -97 -107.5t-134 -57.5q-72 -14 -145 2t-132 61q-59 47 -94 111.5t-39 138.5zM274 856q0 49 35 84t84 35t84 -35t35 -84t-35 -84t-84 -35t-84 35t-35 84z" />
<glyph unicode="&#xc0;" horiz-adv-x="884" d="M20 84l328 1188q8 33 34 52t60 19q35 0 60.5 -19t34.5 -52l327 -1188q10 -41 -9 -76t-58 -45q-41 -10 -76 9.5t-45 58.5q-8 25 -17 59q-8 29 -19 69t-24 87h-348q-14 -47 -24.5 -87t-18.5 -69q-8 -35 -16 -59q-10 -39 -45 -58.5t-76 -9.5q-39 10 -58.5 45t-9.5 76z M245 1690.5q-2 37.5 25 66.5t65 32t66 -24l205 -184q29 -27 32 -64.5t-24 -66.5t-65.5 -32t-67.5 24l-205 184q-29 27 -31 64.5zM324 442h237q-29 106 -59.5 219t-59.5 213q-29 -100 -59.5 -212.5t-58.5 -219.5z" />
<glyph unicode="&#xc1;" horiz-adv-x="884" d="M20 84l328 1188q8 33 34 52t60 19q35 0 60.5 -19t34.5 -52l327 -1188q10 -41 -9 -76t-58 -45q-41 -10 -76 9.5t-45 58.5q-8 25 -17 59q-8 29 -19 69t-24 87h-348q-14 -47 -24.5 -87t-18.5 -69q-8 -35 -16 -59q-10 -39 -45 -58.5t-76 -9.5q-39 10 -58.5 45t-9.5 76z M246.5 1516.5q3.5 37.5 32.5 64.5l204 184q29 27 67 24t64 -32q27 -29 24 -66.5t-32 -64.5l-205 -184q-29 -27 -66.5 -24t-64.5 32t-23.5 66.5zM324 442h237q-29 106 -59.5 219t-59.5 213q-29 -100 -59.5 -212.5t-58.5 -219.5z" />
<glyph unicode="&#xc2;" horiz-adv-x="884" d="M20 84l328 1188q8 33 34 52t60 19q35 0 60.5 -19t34.5 -52l327 -1188q10 -41 -9 -76t-58 -45q-41 -10 -76 9.5t-45 58.5q-8 25 -17 59q-8 29 -19 69t-24 87h-348q-14 -47 -24.5 -87t-18.5 -69q-8 -35 -16 -59q-10 -39 -45 -58.5t-76 -9.5q-39 10 -58.5 45t-9.5 76z M170.5 1522q5.5 37 34.5 59l184 143q23 18 53.5 18.5t55.5 -18.5l184 -143q29 -23 33 -59.5t-19 -65.5t-58.5 -33t-64.5 19q-23 16 -45 35q-20 16 -42.5 32.5t-43.5 32.5q-20 -16 -42.5 -32.5t-41.5 -32.5q-23 -18 -45 -35q-29 -23 -65.5 -19t-59.5 33t-17.5 66zM324 442 h237q-29 106 -59.5 219t-59.5 213q-29 -100 -59.5 -212.5t-58.5 -219.5z" />
<glyph unicode="&#xc3;" horiz-adv-x="884" d="M20 84l328 1188q8 33 34 52t60 19q35 0 60.5 -19t34.5 -52l327 -1188q10 -41 -9 -76t-58 -45q-41 -10 -76 9.5t-45 58.5q-8 25 -17 59q-8 29 -19 69t-24 87h-348q-14 -47 -24.5 -87t-18.5 -69q-8 -35 -16 -59q-10 -39 -45 -58.5t-76 -9.5q-39 10 -58.5 45t-9.5 76z M172 1551q-8 36 12 67q51 76 142 92q90 16 161 -39l17 -12q8 -6 15 -7t11 -1q4 2 11.5 4t11.5 12q20 31 56 38t67 -13t39 -56.5t-15 -66.5q-23 -37 -59.5 -60.5t-79.5 -31.5q-90 -16 -164 39l-16 12q-12 10 -27 6q-10 0 -22 -14q-20 -31 -56 -38t-67 13q-29 20 -37 56z M324 442h237q-29 106 -59.5 219t-59.5 213q-29 -100 -59.5 -212.5t-58.5 -219.5z" />
<glyph unicode="&#xc4;" horiz-adv-x="884" d="M20 84l328 1188q8 33 34 52t60 19q35 0 60.5 -19t34.5 -52l327 -1188q10 -41 -9 -76t-58 -45q-41 -10 -76 9.5t-45 58.5q-8 25 -17 59q-8 29 -19 69t-24 87h-348q-14 -47 -24.5 -87t-18.5 -69q-8 -35 -16 -59q-10 -39 -45 -58.5t-76 -9.5q-39 10 -58.5 45t-9.5 76z M160 1593q0 49 35 84t84 35t83.5 -35t34.5 -84t-34.5 -83.5t-83.5 -34.5t-84 34.5t-35 83.5zM324 442h237q-29 106 -59.5 219t-59.5 213q-29 -100 -59.5 -212.5t-58.5 -219.5zM487 1593q0 49 35 84t84 35t84 -35t35 -84t-35 -83.5t-84 -34.5t-84 34.5t-35 83.5z" />
<glyph unicode="&#xc5;" horiz-adv-x="884" d="M20 84l328 1188q8 33 34 52t60 19q35 0 60.5 -19t34.5 -52l327 -1188q10 -41 -9 -76t-58 -45q-41 -10 -76 9.5t-45 58.5q-8 25 -17 59q-8 29 -19 69t-24 87h-348q-14 -47 -24.5 -87t-18.5 -69q-8 -35 -16 -59q-10 -39 -45 -58.5t-76 -9.5q-39 10 -58.5 45t-9.5 76z M242 1614q0 84 58 142.5t142 58.5q86 0 144.5 -58.5t58.5 -142.5q0 -41 -15.5 -78t-43 -64.5t-64.5 -44t-80 -16.5q-41 0 -77.5 16.5t-64.5 44t-43 64.5t-15 78zM324 442h237q-29 106 -59.5 219t-59.5 213q-29 -100 -59.5 -212.5t-58.5 -219.5zM399 1614q0 -18 13.5 -31.5 t29.5 -13.5q18 0 31.5 13t13.5 32q0 18 -13 30.5t-32 12.5q-16 0 -29.5 -12.5t-13.5 -30.5z" />
<glyph unicode="&#xc6;" horiz-adv-x="1263" d="M8 21q-14 38 2 77l529 1180q10 27 35.5 42t54.5 15h493q41 0 70 -28.5t29 -69.5t-29 -69.5t-70 -28.5h-311v-369h270q41 0 70 -28.5t29 -69.5t-29 -70t-70 -29h-270v-409h311q41 0 70 -29t29 -69q0 -41 -29 -70t-70 -29h-409q-41 0 -70 29t-29 70v180h-323 q-23 -51 -41.5 -93t-32.5 -73q-16 -37 -29 -64q-16 -37 -54 -51t-75 2t-51 54zM379 442h235v527q-47 -106 -110.5 -247.5t-124.5 -279.5z" />
<glyph unicode="&#xc7;" horiz-adv-x="806" d="M82 303v696q0 57 18.5 111.5t52 98.5t81 76t102.5 46t112.5 11t108.5 -24.5t94 -58t72 -88.5l20 -34q20 -35 9 -75t-45 -61q-35 -20 -74 -8.5t-60 45.5l-20 35q-25 43 -72 62.5t-94 5.5q-49 -12 -78.5 -52t-29.5 -90v-696q0 -51 29.5 -90t78.5 -53q47 -12 94 7t72 62 l20 35q20 35 59.5 46.5t74.5 -9.5q35 -20 46 -60t-10 -75l-20 -35q-35 -59 -86 -99t-113 -59v-45q0 -72 -35.5 -132t-97.5 -95q-35 -20 -73.5 -10t-59.5 45q-20 35 -9 74.5t46 60.5q14 10 23.5 24.5t9.5 32.5v45q-111 33 -178.5 124t-67.5 206z" />
<glyph unicode="&#xc8;" horiz-adv-x="753" d="M106 66v1171q0 41 29 69.5t70 28.5h409q41 0 70 -28.5t29 -69.5t-29 -69.5t-70 -28.5h-311v-369h270q41 0 70 -28.5t29 -69.5t-29 -70t-70 -29h-270v-409h311q41 0 70 -29t29 -69q0 -41 -29 -70t-70 -29h-409q-41 0 -70 29t-29 70zM213 1691q-2 38 25 66q27 29 64.5 32 t66.5 -24l204 -184q29 -27 31 -64.5t-24 -66.5q-25 -29 -64 -32t-67 24l-205 184q-29 27 -31 65z" />
<glyph unicode="&#xc9;" horiz-adv-x="753" d="M106 66v1171q0 41 29 69.5t70 28.5h409q41 0 70 -28.5t29 -69.5t-29 -69.5t-70 -28.5h-311v-369h270q41 0 70 -28.5t29 -69.5t-29 -70t-70 -29h-270v-409h311q41 0 70 -29t29 -69q0 -41 -29 -70t-70 -29h-409q-41 0 -70 29t-29 70zM213 1516.5q2 37.5 31 64.5l205 184 q29 27 67.5 24t63.5 -32q27 -29 24.5 -66.5t-31.5 -64.5l-204 -184q-29 -27 -67 -24t-64 32q-27 29 -25 66.5z" />
<glyph unicode="&#xca;" horiz-adv-x="753" d="M106 66v1171q0 41 29 69.5t70 28.5h409q41 0 70 -28.5t29 -69.5t-29 -69.5t-70 -28.5h-311v-369h270q41 0 70 -28.5t29 -69.5t-29 -70t-70 -29h-270v-409h311q41 0 70 -28.5t29 -69.5t-29 -70t-70 -29h-409q-41 0 -70 29t-29 70zM137 1522q4 37 33 59l184 143 q25 18 55.5 18.5t53.5 -18.5l184 -143q29 -23 34 -59.5t-17 -65.5q-23 -29 -60 -33t-65 19q-23 16 -45 35q-20 16 -42 32.5t-42 32.5q-23 -16 -44.5 -32.5t-41.5 -32.5q-23 -18 -45 -35q-29 -23 -64.5 -19t-58.5 33t-19 66z" />
<glyph unicode="&#xcb;" horiz-adv-x="753" d="M106 66v1171q0 41 29 69.5t70 28.5h409q41 0 70 -28.5t29 -69.5t-29 -69.5t-70 -28.5h-311v-369h270q41 0 70 -28.5t29 -69.5t-29 -70t-70 -29h-270v-409h311q41 0 70 -29t29 -69q0 -41 -29 -70t-70 -29h-409q-41 0 -70 29t-29 70zM127 1593q0 49 35 84t84 35t84 -35 t35 -84t-35 -83.5t-84 -34.5t-84 34.5t-35 83.5zM455 1593q0 49 34.5 84t83.5 35t84 -35t35 -84t-34.5 -83.5t-84.5 -34.5q-49 0 -83.5 34.5t-34.5 83.5z" />
<glyph unicode="&#xcc;" horiz-adv-x="409" d="M9 1691q-3 38 24 66q27 29 64.5 32t66.5 -24l205 -184q29 -27 32 -64.5t-24 -66.5t-65 -32t-66 24l-205 184q-29 27 -32 65zM106 57v1188q0 41 29 69.5t70 28.5t69.5 -28.5t28.5 -69.5v-1188q0 -41 -28.5 -69.5t-69.5 -28.5t-70 28.5t-29 69.5z" />
<glyph unicode="&#xcd;" horiz-adv-x="409" d="M9 1516.5q3 37.5 32 64.5l205 184q29 27 66.5 24t64.5 -32t23.5 -66.5t-31.5 -64.5l-205 -184q-29 -27 -66.5 -24t-64.5 32t-24 66.5zM106 57v1188q0 41 29 69.5t70 28.5t69.5 -28.5t28.5 -69.5v-1188q0 -41 -28.5 -69.5t-69.5 -28.5t-70 28.5t-29 69.5z" />
<glyph unicode="&#xce;" horiz-adv-x="409" d="M-67.5 1522q4.5 37 32.5 59l185 143q25 18 55.5 18.5t54.5 -18.5l184 -143q29 -23 33 -59.5t-18 -65.5q-23 -29 -60 -33t-65 19q-23 16 -45 35q-20 16 -42 32.5t-42 32.5q-20 -16 -43 -32.5t-41 -32.5q-23 -18 -45 -35q-29 -23 -65.5 -19t-59.5 33t-18.5 66zM106 57v1188 q0 41 29 69.5t70 28.5t69.5 -28.5t28.5 -69.5v-1188q0 -41 -28.5 -69.5t-69.5 -28.5t-70 28.5t-29 69.5z" />
<glyph unicode="&#xcf;" horiz-adv-x="409" d="M-78 1593q0 49 35 84t84 35t84 -35t35 -84t-35 -83.5t-84 -34.5t-84 34.5t-35 83.5zM106 57v1188q0 41 29 69.5t70 28.5t69.5 -28.5t28.5 -69.5v-1188q0 -41 -28.5 -69.5t-69.5 -28.5t-70 28.5t-29 69.5zM250 1593q0 49 34.5 84t84.5 35q49 0 83.5 -35t34.5 -84 t-34.5 -83.5t-83.5 -34.5t-84 34.5t-35 83.5z" />
<glyph unicode="&#xd0;" horiz-adv-x="903" d="M-25 672q0 39 27 65.5t66 26.5h65v473q0 41 28.5 69.5t69.5 28.5h246q72 0 134.5 -26.5t109.5 -73.5t73.5 -109.5t26.5 -134.5v-680q0 -72 -26.5 -134t-73.5 -109.5t-109.5 -74t-134.5 -26.5h-246q-41 0 -69.5 29t-28.5 70v512h-65q-39 0 -66 27.5t-27 66.5zM330 164h147 q61 0 104.5 43t43.5 104v680q0 61 -43 104.5t-105 43.5h-147v-375h106q41 0 67.5 -26.5t26.5 -65.5t-26.5 -66.5t-67.5 -27.5h-106v-414z" />
<glyph unicode="&#xd1;" horiz-adv-x="983" d="M106 57v1188q0 35 22 61.5t54 34.5q35 8 66 -7t45 -46q61 -131 129 -268q57 -117 124.5 -258t133.5 -275v758q0 41 28.5 69.5t69.5 28.5t70 -28.5t29 -69.5v-1188q0 -35 -20.5 -61.5t-55.5 -34.5t-64.5 7.5t-46.5 45.5q-61 131 -129 269q-57 117 -125.5 258t-132.5 274 v-758q0 -41 -28.5 -69.5t-69.5 -28.5t-70 28.5t-29 69.5zM220 1551q-7 36 13 67q51 76 142 92q88 16 162 -39l16 -12q8 -6 15 -7t12 -1q4 2 11 4t11 12q20 31 56 38t67 -13t38 -56.5t-13 -66.5q-23 -37 -60 -60.5t-80 -31.5q-90 -16 -164 39l-16 12q-12 10 -27 6 q-10 0 -22 -14q-20 -31 -56 -38t-67 13t-38 56z" />
<glyph unicode="&#xd2;" d="M82 303v696q0 72 27.5 134.5t73.5 109.5t108.5 73.5t134.5 26.5t134.5 -26.5t109.5 -73.5t73.5 -109.5t26.5 -134.5v-696q0 -72 -26.5 -134.5t-73.5 -109.5t-109.5 -73.5t-134.5 -26.5t-134.5 26.5t-108.5 73.5t-73.5 109.5t-27.5 134.5zM231 1690.5q-2 37.5 23 66.5 q27 29 65.5 32t67.5 -24l205 -184q29 -27 31 -64.5t-25 -66.5t-64.5 -32t-66.5 24l-205 184q-29 27 -31 64.5zM279 303q0 -61 44 -104t103 -43q61 0 104 43t43 104v696q0 61 -43 104.5t-104 43.5q-59 0 -103 -43t-44 -105v-696z" />
<glyph unicode="&#xd3;" d="M82 303v696q0 72 27.5 134.5t73.5 109.5t108.5 73.5t134.5 26.5t134.5 -26.5t109.5 -73.5t73.5 -109.5t26.5 -134.5v-696q0 -72 -26.5 -134.5t-73.5 -109.5t-109.5 -73.5t-134.5 -26.5t-134.5 26.5t-108.5 73.5t-73.5 109.5t-27.5 134.5zM231 1516.5q2 37.5 31 64.5 l205 184q29 27 66.5 24t64.5 -32t25 -66.5t-31 -64.5l-205 -184q-29 -27 -67.5 -24t-63.5 32q-27 29 -25 66.5zM279 303q0 -61 44 -104t103 -43q61 0 104 43t43 104v696q0 61 -43 104.5t-104 43.5q-59 0 -103 -43t-44 -105v-696z" />
<glyph unicode="&#xd4;" d="M82 303v696q0 72 27.5 134.5t73.5 109.5t108.5 73.5t134.5 26.5t134.5 -26.5t109.5 -73.5t73.5 -109.5t26.5 -134.5v-696q0 -72 -26.5 -134.5t-73.5 -109.5t-109.5 -73.5t-134.5 -26.5t-134.5 26.5t-108.5 73.5t-73.5 109.5t-27.5 134.5zM154.5 1522q5.5 37 33.5 59 l185 143q25 18 54.5 18.5t53.5 -18.5l185 -143q29 -23 34 -59.5t-18 -65.5t-59.5 -33t-65.5 19q-23 16 -45 35q-20 16 -43 32.5t-43 32.5q-20 -16 -43 -32.5t-41 -32.5q-23 -18 -45 -35q-29 -23 -65.5 -19t-59.5 33t-17.5 66zM279 303q0 -61 44 -104t103 -43q61 0 104 43 t43 104v696q0 61 -43 104.5t-104 43.5q-59 0 -103 -43t-44 -105v-696z" />
<glyph unicode="&#xd5;" d="M82 303v696q0 72 26.5 134.5t73.5 109.5t109.5 73.5t134.5 26.5q70 0 133.5 -26.5t109.5 -73.5t73.5 -109.5t27.5 -134.5v-696q0 -72 -27.5 -134.5t-73.5 -109.5t-109.5 -73.5t-133.5 -26.5q-72 0 -134.5 26.5t-109.5 73.5t-73.5 109.5t-26.5 134.5zM153.5 1551 q-8.5 36 14.5 67q23 37 59.5 60.5t79.5 31.5q90 16 164 -39l16 -12q8 -6 14.5 -7t10.5 -1q4 2 11 4t14 12q20 31 56 38t66 -13q29 -20 37.5 -56.5t-12.5 -66.5q-51 -76 -141 -92t-162 39l-16 12q-8 6 -15.5 7t-11.5 -1q-14 0 -23 -14q-23 -31 -57.5 -38t-64.5 13 q-31 20 -39.5 56zM279 303q0 -61 43 -104t104 -43q59 0 103 43t44 104v696q0 61 -44 104.5t-103 43.5q-61 0 -104 -43t-43 -105v-696z" />
<glyph unicode="&#xd6;" d="M82 303v696q0 72 26.5 134.5t73.5 109.5t109.5 73.5t134.5 26.5q70 0 133.5 -26.5t109.5 -73.5t73.5 -109.5t27.5 -134.5v-696q0 -72 -27.5 -134.5t-73.5 -109.5t-109.5 -73.5t-133.5 -26.5q-72 0 -134.5 26.5t-109.5 73.5t-73.5 109.5t-26.5 134.5zM143 1593q0 49 35 84 t84 35t84 -35t35 -84t-35 -83.5t-84 -34.5t-84 34.5t-35 83.5zM279 303q0 -61 43 -104t104 -43q59 0 103 43t44 104v696q0 61 -44 104.5t-103 43.5q-61 0 -104 -43t-43 -105v-696zM471 1593q0 49 35 84t84 35t84 -35t35 -84t-35 -83.5t-84 -34.5t-84 34.5t-35 83.5z" />
<glyph unicode="&#xd7;" d="M123 385q0 41 29 70l135 135l-135 135q-29 29 -29 70t29 69q29 29 69.5 29t69.5 -29l135 -135l135 135q29 29 70 29t69 -29q29 -29 29 -69.5t-29 -69.5l-135 -135l135 -135q29 -29 29 -70t-29 -70t-69.5 -28.5t-69.5 28.5l-135 136l-135 -136q-29 -29 -70 -28.5t-69 28.5 q-29 29 -29 70z" />
<glyph unicode="&#xd8;" horiz-adv-x="872" d="M-22.5 -51q-10.5 37 8.5 71l114 209q-8 33 -8 74v696q0 72 26.5 134.5t74 109.5t110 73.5t133.5 26.5q66 0 122 -22.5t104 -60.5l61 112q18 35 55 45t72 -8t45 -55t-8 -72l-115 -209q4 -18 6 -36.5t2 -37.5v-696q0 -72 -27.5 -134.5t-73.5 -109.5t-109.5 -73.5 t-133.5 -26.5q-66 0 -123 21.5t-102 62.5l-61 -113q-18 -35 -55.5 -45t-71.5 9q-35 18 -45.5 55zM289 575l272 502q-20 31 -52 50.5t-73 19.5q-61 0 -104 -43t-43 -105v-424zM309 225q20 -31 53 -50t74 -19q59 0 103.5 43t44.5 104v424z" />
<glyph unicode="&#xd9;" horiz-adv-x="868" d="M90 303v942q0 41 28.5 69.5t69.5 28.5t70 -28.5t29 -69.5v-942q0 -61 43 -104t104 -43t104.5 43t43.5 104v942q0 41 28.5 69.5t69.5 28.5t69.5 -28.5t28.5 -69.5v-942q0 -72 -26.5 -134.5t-73.5 -109.5t-109.5 -73.5t-134.5 -26.5t-134 26.5t-109.5 73.5t-74 109.5 t-26.5 134.5zM237 1690.5q-2 37.5 25 66.5t65 32t66 -24l205 -184q29 -27 32 -64.5t-24 -66.5t-65.5 -32t-67.5 24l-205 184q-29 27 -31 64.5z" />
<glyph unicode="&#xda;" horiz-adv-x="868" d="M90 303v942q0 41 28.5 69.5t69.5 28.5t70 -28.5t29 -69.5v-942q0 -61 43 -104t104 -43t104.5 43t43.5 104v942q0 41 28.5 69.5t69.5 28.5t69.5 -28.5t28.5 -69.5v-942q0 -72 -26.5 -134.5t-73.5 -109.5t-109.5 -73.5t-134.5 -26.5t-134 26.5t-109.5 73.5t-74 109.5 t-26.5 134.5zM238.5 1516.5q3.5 37.5 31.5 64.5l205 184q29 27 67 24t64 -32q27 -29 24 -66.5t-32 -64.5l-205 -184q-29 -27 -66.5 -24t-64.5 32t-23.5 66.5z" />
<glyph unicode="&#xdb;" horiz-adv-x="868" d="M90 303v942q0 41 28.5 69.5t69.5 28.5t70 -28.5t29 -69.5v-942q0 -61 44 -104t103 -43q61 0 104.5 43t43.5 104v942q0 41 28.5 69.5t69.5 28.5t69.5 -28.5t28.5 -69.5v-942q0 -72 -26.5 -134.5t-73.5 -109.5t-109.5 -73.5t-134.5 -26.5t-134 26.5t-108.5 73.5t-74 109.5 t-27.5 134.5zM162.5 1522q5.5 37 34.5 59l184 143q23 18 53.5 18.5t54.5 -18.5l185 -143q29 -23 33 -59.5t-19 -65.5t-58.5 -33t-64.5 19q-23 16 -45 35q-20 16 -42.5 32.5t-43.5 32.5q-20 -16 -42.5 -32.5t-41.5 -32.5q-23 -18 -45 -35q-29 -23 -65.5 -19t-59.5 33 t-17.5 66z" />
<glyph unicode="&#xdc;" horiz-adv-x="868" d="M90 303v942q0 41 28.5 69.5t69.5 28.5t70 -28.5t29 -69.5v-942q0 -61 44 -104t103 -43q61 0 104.5 43t43.5 104v942q0 41 28.5 69.5t69.5 28.5t69.5 -28.5t28.5 -69.5v-942q0 -72 -26.5 -134.5t-73.5 -109.5t-109.5 -73.5t-134.5 -26.5t-134 26.5t-108.5 73.5t-74 109.5 t-27.5 134.5zM152 1593q0 49 34.5 84t83.5 35t84 -35t35 -84t-35 -83.5t-84 -34.5t-83.5 34.5t-34.5 83.5zM479 1593q0 49 35 84t84 35t84 -35t35 -84t-35 -83.5t-84 -34.5t-84 34.5t-35 83.5z" />
<glyph unicode="&#xdd;" horiz-adv-x="823" d="M32 1276q13 39 50 57q35 18 74 5t57 -50l68 -135q29 -59 63.5 -129t67.5 -133q33 63 67.5 133t63.5 129l67 135q18 37 57.5 50.5t75.5 -5.5q35 -18 48.5 -57t-5.5 -76l-276 -551v-592q0 -41 -28.5 -69.5t-69.5 -28.5t-70 28.5t-29 69.5v592l-276 551q-18 37 -5 76z M217 1516.5q2 37.5 31 64.5l205 184q29 27 66.5 24t64.5 -32t24.5 -66.5t-30.5 -64.5l-205 -184q-29 -27 -68 -24t-65 32q-25 29 -23 66.5z" />
<glyph unicode="&#xde;" horiz-adv-x="819" d="M106 57v1180q0 41 29 69.5t70 28.5t69.5 -28.5t28.5 -69.5v-160h148q70 0 133 -26.5t109 -73.5t74 -109.5t28 -134.5v-123q0 -72 -28 -134t-74 -109.5t-109.5 -74t-132.5 -26.5h-148v-209q0 -41 -28.5 -69.5t-69.5 -28.5t-70 28.5t-29 69.5zM303 463h148q59 0 103 43 t44 104v123q0 61 -44 104.5t-103 43.5h-148v-418z" />
<glyph unicode="&#xdf;" horiz-adv-x="876" d="M113 57v1024q0 84 42 154t113 108q74 39 156 35t149 -49q63 -41 98.5 -107.5t35.5 -140.5q0 -18 -2 -28q-6 -84 -58 -148q66 -47 103.5 -117.5t37.5 -156.5v-328q0 -70 -26.5 -131t-72.5 -107.5t-107.5 -73t-130.5 -26.5q-39 0 -66 26.5t-27 65.5t27 66t66 27 q63 0 108 45t45 108v328q0 63 -45 108t-108 45q-35 0 -59.5 20.5t-31.5 53.5q-6 33 9.5 61.5t46.5 41.5l37 16q63 27 69 94q4 31 -10 58.5t-41 46.5q-25 16 -55.5 18t-59.5 -14q-29 -14 -44 -41t-15 -58v-1024q0 -39 -26.5 -65.5t-65.5 -26.5t-65.5 26.5t-26.5 65.5z" />
<glyph unicode="&#xe0;" horiz-adv-x="720" d="M31 270q0 61 23.5 115.5t63.5 94.5t94 63.5t116 23.5h112v109q0 33 -18.5 60.5t-48.5 39.5q-31 12 -64 6t-55 -30q-27 -27 -64.5 -27t-64.5 27q-29 29 -29 65.5t29 65.5q63 63 149 80.5t168 -17.5q84 -35 133.5 -107.5t49.5 -162.5v-610q0 -39 -27 -66t-66 -27h-204 q-61 0 -115.5 23.5t-94.5 63.5t-63.5 94.5t-23.5 115.5zM178 1281.5q-2 35.5 23 64.5q25 27 60.5 28.5t62.5 -22.5l204 -185q29 -25 30 -60.5t-23 -64.5q-23 -27 -59 -28.5t-64 22.5l-205 185q-27 25 -29 60.5zM215 270q0 -47 33 -79.5t80 -32.5h112v225h-112q-47 0 -80 -33 t-33 -80z" />
<glyph unicode="&#xe1;" horiz-adv-x="720" d="M31 270q0 61 23.5 115.5t63.5 94.5t94 63.5t116 23.5h112v109q0 33 -18.5 60.5t-48.5 39.5q-31 12 -64 6t-55 -30q-27 -27 -64.5 -27t-64.5 27q-29 29 -29 65.5t29 65.5q63 63 149 80.5t168 -17.5q84 -35 133.5 -107.5t49.5 -162.5v-610q0 -39 -27 -66t-66 -27h-204 q-61 0 -115.5 23.5t-94.5 63.5t-63.5 94.5t-23.5 115.5zM178 1107q2 36 29 60l205 185q29 25 64.5 22.5t60.5 -28.5q23 -29 21.5 -65t-30.5 -60l-204 -185q-27 -25 -63 -22.5t-60 28.5q-25 29 -23 65zM215 270q0 -47 33 -79.5t80 -32.5h112v225h-112q-47 0 -80 -33t-33 -80z " />
<glyph unicode="&#xe2;" horiz-adv-x="720" d="M31 270q0 61 23.5 115.5t63.5 94.5t94 63.5t116 23.5h112v109q0 33 -18.5 60.5t-48.5 39.5q-31 12 -62.5 6t-56.5 -30q-27 -27 -64.5 -27t-64.5 27q-29 29 -29 65.5t29 65.5q63 63 149 80.5t170 -17.5q82 -35 131.5 -107.5t49.5 -162.5v-610q0 -39 -27 -66t-66 -27h-204 q-61 0 -115.5 23.5t-94.5 63.5t-63.5 94.5t-23.5 115.5zM100 1112.5q4 32.5 33 54.5l184 144q23 16 51.5 16t51.5 -16l184 -144q27 -23 32 -55.5t-18 -60.5q-23 -29 -55.5 -33t-60.5 18q-25 18 -47 37q-20 16 -43 33.5t-43 34.5q-20 -16 -43 -33.5t-43 -34.5 q-23 -18 -47 -37q-29 -23 -62 -18.5t-55 33.5q-23 29 -19 61.5zM215 270q0 -47 33 -79.5t80 -32.5h112v225h-112q-47 0 -80 -33t-33 -80z" />
<glyph unicode="&#xe3;" horiz-adv-x="720" d="M31 270q0 61 23.5 115.5t63.5 94.5t94 63.5t116 23.5h112v109q0 33 -18.5 60.5t-48.5 39.5q-31 12 -62.5 6t-56.5 -30q-27 -27 -64.5 -27t-64.5 27q-29 29 -29 65.5t29 65.5q63 63 149 80.5t170 -17.5q82 -35 131.5 -107.5t49.5 -162.5v-610q0 -39 -27 -66t-66 -27h-204 q-61 0 -115.5 23.5t-94.5 63.5t-63.5 94.5t-23.5 115.5zM103 1144q-7 34 12 62q49 72 137 88q86 16 158 -39l16 -12q16 -10 31 -6q4 0 12 3t14 13q20 29 53 36t62 -11q29 -20 36 -54t-11 -63q-49 -72 -138 -88q-86 -16 -157 39l-17 12q-16 10 -30 6q-4 0 -12.5 -3t-14.5 -13 q-20 -29 -53 -36t-62 12q-29 20 -36 54zM215 270q0 -47 33 -79.5t80 -32.5h112v225h-112q-47 0 -80 -33t-33 -80z" />
<glyph unicode="&#xe4;" horiz-adv-x="720" d="M31 270q0 61 23.5 115.5t63.5 94.5t94 63.5t116 23.5h112v109q0 33 -18.5 60.5t-48.5 39.5q-31 12 -62.5 6t-56.5 -30q-27 -27 -64.5 -27t-64.5 27q-29 29 -29 65.5t29 65.5q63 63 149 80.5t170 -17.5q82 -35 131.5 -107.5t49.5 -162.5v-610q0 -39 -27 -66t-66 -27h-204 q-61 0 -115.5 23.5t-94.5 63.5t-63.5 94.5t-23.5 115.5zM92 1184q0 47 33 79.5t80 32.5t79.5 -32.5t32.5 -79.5t-32.5 -80t-79.5 -33t-80 33t-33 80zM215 270q0 -47 33 -79.5t80 -32.5h112v225h-112q-47 0 -80 -33t-33 -80zM420 1184q0 47 32.5 79.5t79.5 32.5t80 -32.5 t33 -79.5t-32.5 -80t-80.5 -33q-47 0 -79.5 33t-32.5 80z" />
<glyph unicode="&#xe5;" horiz-adv-x="720" d="M31 270q0 61 23.5 115.5t63.5 94.5t94 63.5t116 23.5h112v109q0 33 -18.5 60.5t-48.5 39.5q-31 12 -62.5 6t-54.5 -30q-29 -27 -66.5 -27t-64.5 27q-29 29 -29 65.5t29 65.5q63 63 149 80.5t170 -17.5q82 -35 131.5 -107.5t49.5 -162.5v-610q0 -39 -27 -66t-66 -27h-204 q-61 0 -115.5 23.5t-94.5 63.5t-63.5 94.5t-23.5 115.5zM172 1204q0 82 57.5 139.5t139.5 57.5t139 -57.5t57 -139.5t-57 -139t-139 -57t-139.5 57t-57.5 139zM215 270q0 -47 33 -79.5t80 -32.5h112v225h-112q-47 0 -80 -33t-33 -80zM319 1204q0 -20 14.5 -34.5t35.5 -14.5 q20 0 34.5 14.5t14.5 34.5t-14.5 34.5t-34.5 14.5t-35 -14.5t-15 -34.5z" />
<glyph unicode="&#xe6;" horiz-adv-x="1107" d="M38 204q-18 87 17 171q35 86 109 135t166 49h112v113q0 35 -19.5 62.5t-49.5 41.5q-33 12 -66 6t-57 -30q-29 -29 -66 -29t-65 29q-27 27 -27 64.5t27 64.5q66 66 152.5 83t170.5 -18q51 -20 93 -59q41 39 93 60.5t111 21.5q61 0 115.5 -23.5t94.5 -63.5t63.5 -94.5 t23.5 -115.5v-205q0 -39 -26.5 -65.5t-65.5 -26.5h-317v-113q0 -35 18.5 -62.5t50.5 -41.5q31 -12 65 -6t58 30q27 29 65 29t64 -29q29 -29 29 -65.5t-29 -65.5q-63 -63 -150 -80.5t-173 17.5q-53 20 -90 59q-41 -39 -93 -59q-84 -35 -171 -17.5t-152 80.5q-63 66 -81 153z M218 239.5q7 -32.5 32 -57.5t57.5 -31t65.5 7q31 14 50 41.5t19 62.5v113h-112q-35 0 -63.5 -18.5t-41.5 -51.5q-14 -33 -7 -65.5zM627 559h225v113q0 47 -33 79.5t-80 32.5t-79.5 -32.5t-32.5 -79.5v-113z" />
<glyph unicode="&#xe7;" horiz-adv-x="677" d="M88 262v410q0 92 49 165.5t135 108.5q84 35 171 17.5t153 -82.5q27 -27 27 -65t-27 -64q-29 -29 -65.5 -29t-65.5 29q-25 25 -57.5 30.5t-65.5 -6.5q-33 -14 -51.5 -41.5t-18.5 -62.5v-410q0 -35 18.5 -62.5t51.5 -41.5q18 -8 41 -8h2h2q45 0 78 32q29 29 65.5 29 t65.5 -29q27 -29 27 -65.5t-27 -65.5q-53 -49 -119 -71v-48q0 -70 -33.5 -129t-93.5 -94q-35 -18 -70.5 -9t-56.5 44q-18 33 -9 69.5t44 55.5q35 25 35 63v48q-4 2 -10.5 4t-10.5 4q-86 35 -135 108.5t-49 165.5z" />
<glyph unicode="&#xe8;" horiz-adv-x="753" d="M88 262v410q0 61 23.5 115.5t63.5 94.5t94.5 63.5t115.5 23.5t115.5 -23.5t94.5 -63.5t63.5 -94.5t23.5 -115.5v-205q0 -39 -26.5 -65.5t-65.5 -26.5h-318v-113q0 -35 19.5 -62.5t50.5 -41.5q33 -12 65.5 -6t57.5 30q29 29 65.5 29t65.5 -29q27 -29 27 -65.5t-27 -65.5 q-66 -63 -153 -80.5t-171 17.5q-86 35 -135 108.5t-49 165.5zM195.5 1281.5q-0.5 35.5 21.5 64.5q25 27 60.5 28.5t64.5 -22.5l205 -185q27 -25 29 -60.5t-23 -64.5q-25 -27 -60.5 -28.5t-62.5 22.5l-205 185q-29 25 -29.5 60.5zM272 559h226v113q0 47 -33 79.5t-80 32.5 t-80 -32.5t-33 -79.5v-113z" />
<glyph unicode="&#xe9;" horiz-adv-x="753" d="M88 262v410q0 61 23.5 115.5t63.5 94.5t94.5 63.5t115.5 23.5t115.5 -23.5t94.5 -63.5t63.5 -94.5t23.5 -115.5v-205q0 -39 -26.5 -65.5t-65.5 -26.5h-318v-113q0 -35 19.5 -62.5t50.5 -41.5q33 -12 65.5 -6t57.5 30q29 29 65.5 29t65.5 -29q27 -29 27 -65.5t-27 -65.5 q-66 -63 -153 -80.5t-171 17.5q-86 35 -135 108.5t-49 165.5zM195.5 1107q1.5 36 29.5 60l205 185q27 25 62.5 22.5t60.5 -28.5q25 -29 22.5 -65t-28.5 -60l-205 -185q-29 -25 -64.5 -22.5t-60.5 28.5q-23 29 -21.5 65zM272 559h226v113q0 47 -33 79.5t-80 32.5t-80 -32.5 t-33 -79.5v-113z" />
<glyph unicode="&#xea;" horiz-adv-x="753" d="M88 262v410q0 61 23.5 115.5t63.5 94.5t94.5 63.5t115.5 23.5t115.5 -23.5t94.5 -63.5t63.5 -94.5t23.5 -115.5v-205q0 -39 -26.5 -65.5t-65.5 -26.5h-318v-113q0 -35 19.5 -62.5t50.5 -41.5q33 -12 65.5 -6t57.5 30q29 29 65.5 29t65.5 -29q27 -29 27 -65.5t-27 -65.5 q-66 -63 -153 -80.5t-171 17.5q-86 35 -135 108.5t-49 165.5zM119 1112.5q4 32.5 31 54.5l184 144q23 16 51.5 16t50.5 -16l185 -144q29 -23 32.5 -55.5t-18.5 -60.5q-20 -29 -54 -33t-63 18q-25 18 -47 37q-20 16 -42.5 33.5t-43.5 34.5q-20 -16 -43 -33.5t-43 -34.5 q-22 -19 -47 -37q-27 -23 -60.5 -18.5t-56.5 33.5q-20 29 -16 61.5zM272 559h226v113q0 47 -33 79.5t-80 32.5t-80 -32.5t-33 -79.5v-113z" />
<glyph unicode="&#xeb;" horiz-adv-x="753" d="M88 262v410q0 61 23.5 115.5t63.5 94.5t94.5 63.5t115.5 23.5t115.5 -23.5t94.5 -63.5t63.5 -94.5t23.5 -115.5v-205q0 -39 -26.5 -65.5t-65.5 -26.5h-318v-113q0 -35 19.5 -62.5t50.5 -41.5q33 -12 65.5 -6t57.5 30q29 29 65.5 29t65.5 -29q27 -29 27 -65.5t-27 -65.5 q-66 -63 -153 -80.5t-171 17.5t-134 108.5t-50 165.5zM109 1184q0 47 32.5 79.5t79.5 32.5t80 -32.5t33 -79.5t-33 -80t-80 -33t-79.5 33t-32.5 80zM272 559h226v113q0 47 -33 79.5t-80 32.5t-80 -32.5t-33 -79.5v-113zM436 1184q0 47 33 79.5t80 32.5t80 -32.5t33 -79.5 t-33 -80t-80 -33t-80 33t-33 80z" />
<glyph unicode="&#xec;" horiz-adv-x="409" d="M-26 1281.5q-1 35.5 24 64.5q23 27 59.5 28.5t63.5 -22.5l205 -185q29 -25 30 -60.5t-24 -64.5q-25 -27 -60.5 -28.5t-62.5 22.5l-205 185q-29 25 -30 60.5zM113 57v820q0 39 27.5 65.5t64.5 26.5q39 0 65.5 -27t26.5 -65v-820q0 -39 -26.5 -65.5t-65.5 -26.5 q-37 0 -64.5 26.5t-27.5 65.5z" />
<glyph unicode="&#xed;" horiz-adv-x="409" d="M54 1107q1 36 30 60l205 185q29 25 64.5 22.5t58.5 -28.5q25 -29 23.5 -65t-29.5 -60l-205 -185q-27 -25 -63 -22.5t-60 28.5q-25 29 -24 65zM113 57v820q0 39 26.5 65.5t65.5 26.5q37 0 64.5 -27t27.5 -65v-820q0 -39 -27.5 -65.5t-64.5 -26.5q-39 0 -65.5 26.5 t-26.5 65.5z" />
<glyph unicode="&#xee;" horiz-adv-x="409" d="M-61.5 1112.5q4.5 32.5 32.5 54.5l185 144q23 16 50 16t50 -16l184 -144q29 -23 33 -55.5t-16 -60.5q-23 -29 -56.5 -33t-60.5 18q-25 18 -47 37q-20 16 -43 33.5t-43 34.5q-20 -16 -44 -33.5t-44 -34.5q-23 -18 -47 -37q-27 -23 -61 -18.5t-54 33.5q-23 29 -18.5 61.5z M115 57v820q0 39 26.5 65.5t65.5 26.5q37 0 64.5 -27t27.5 -65v-820q0 -39 -27.5 -65.5t-64.5 -26.5q-39 0 -65.5 26.5t-26.5 65.5z" />
<glyph unicode="&#xef;" horiz-adv-x="409" d="M-72 1184q0 47 33 79.5t80 32.5t80 -32.5t33 -79.5t-33 -80t-80 -33t-80 33t-33 80zM113 57v820q0 39 26.5 65.5t65.5 26.5t65.5 -27t26.5 -65v-820q0 -39 -26.5 -65.5t-65.5 -26.5t-65.5 26.5t-26.5 65.5zM256 1184q0 47 33 79.5t80 32.5t79.5 -32.5t32.5 -79.5 t-32.5 -80t-79.5 -33t-80 33t-33 80z" />
<glyph unicode="&#xf0;" horiz-adv-x="770" d="M88 262v410q0 61 23.5 115.5t63.5 94.5t94.5 63.5t115.5 23.5q10 0 21.5 -1t21.5 -3q-12 23 -24.5 44t-28.5 42l-64 -43q-31 -20 -65.5 -12t-57.5 36q-20 31 -12 66t37 57l39 25q-10 8 -21.5 15t-21.5 13q-33 23 -40 60t15 69q20 33 57.5 40t69.5 -15q27 -16 51.5 -35.5 t47.5 -40.5l49 33q31 20 66.5 12t56.5 -37q20 -31 12 -66.5t-37 -56.5l-29 -18q16 -23 29.5 -44.5t26.5 -45.5q47 -90 72.5 -188.5t25.5 -202.5v-410q0 -61 -23.5 -115.5t-63.5 -94.5t-94.5 -63.5t-115.5 -23.5t-115.5 23.5t-94.5 63.5t-63.5 94.5t-23.5 115.5zM272 262 q0 -47 33 -79.5t80 -32.5t80 32.5t33 79.5v410q0 47 -33 79.5t-80 32.5t-80 -32.5t-33 -79.5v-410z" />
<glyph unicode="&#xf1;" horiz-adv-x="802" d="M113 57v811q0 39 26.5 66t65.5 27h205q61 0 115.5 -24t94 -63.5t63.5 -94t24 -115.5v-607q0 -39 -27 -65.5t-66 -26.5t-65.5 26.5t-26.5 65.5v607q0 47 -32.5 79.5t-79.5 32.5h-113v-719q0 -39 -26.5 -65.5t-65.5 -26.5t-65.5 26.5t-26.5 65.5zM143 1144q-6 34 13 62 q49 72 137 88q86 16 158 -39l16 -12q16 -10 31 -6q4 0 12 3t14 13q18 29 52 36t63 -11q29 -20 36 -54t-11 -63q-49 -72 -138 -88q-86 -16 -159 39l-17 12q-8 6 -16 7.5t-15 -1.5q-14 0 -24 -16q-20 -29 -54 -36t-63 12q-29 20 -35 54z" />
<glyph unicode="&#xf2;" horiz-adv-x="770" d="M88 262v410q0 61 23.5 115.5t63.5 94.5t94.5 63.5t115.5 23.5t115.5 -23.5t94.5 -63.5t63.5 -94.5t23.5 -115.5v-410q0 -61 -23.5 -115.5t-63.5 -94.5t-94.5 -63.5t-115.5 -23.5t-115.5 23.5t-94.5 63.5t-63.5 94.5t-23.5 115.5zM194.5 1281.5q-1.5 35.5 22.5 64.5 q25 27 60.5 28.5t62.5 -22.5l205 -185q29 -25 29.5 -60.5t-21.5 -64.5q-25 -27 -60.5 -28.5t-64.5 22.5l-205 185q-27 25 -28.5 60.5zM272 262q0 -47 33 -79.5t80 -32.5t80 32.5t33 79.5v410q0 47 -33 79.5t-80 32.5t-80 -32.5t-33 -79.5v-410z" />
<glyph unicode="&#xf3;" horiz-adv-x="770" d="M88 262v410q0 61 23.5 115.5t63.5 94.5t94.5 63.5t115.5 23.5t115.5 -23.5t94.5 -63.5t63.5 -94.5t23.5 -115.5v-410q0 -61 -23.5 -115.5t-63.5 -94.5t-94.5 -63.5t-115.5 -23.5t-115.5 23.5t-94.5 63.5t-63.5 94.5t-23.5 115.5zM194.5 1107q2.5 36 28.5 60l205 185 q29 25 64.5 22.5t60.5 -28.5q25 -29 22.5 -65t-28.5 -60l-205 -185q-29 -25 -64.5 -23t-60.5 29q-25 29 -22.5 65zM272 262q0 -47 33 -79.5t80 -32.5t80 32.5t33 79.5v410q0 47 -33 79.5t-80 32.5t-80 -32.5t-33 -79.5v-410z" />
<glyph unicode="&#xf4;" horiz-adv-x="770" d="M88 262v410q0 61 23.5 115.5t63.5 94.5t94.5 63.5t115.5 23.5t115.5 -23.5t94.5 -63.5t63.5 -94.5t23.5 -115.5v-410q0 -61 -23.5 -115.5t-63.5 -94.5t-94.5 -63.5t-115.5 -23.5t-115.5 23.5t-94.5 63.5t-63.5 94.5t-23.5 115.5zM116.5 1112.5q4.5 32.5 33.5 54.5 l184 144q23 16 51.5 16t50.5 -16l185 -144q27 -23 31.5 -55.5t-17.5 -60.5q-23 -29 -55.5 -33t-61.5 18q-25 18 -47 37q-20 16 -42.5 33.5t-43.5 34.5q-20 -16 -43 -33.5t-43 -34.5q-22 -19 -47 -37q-29 -23 -61.5 -18.5t-55.5 33.5t-18.5 61.5zM272 262q0 -47 33 -79.5 t80 -32.5t80 32.5t33 79.5v410q0 47 -33 79.5t-80 32.5t-80 -32.5t-33 -79.5v-410z" />
<glyph unicode="&#xf5;" horiz-adv-x="770" d="M88 262v410q0 61 23.5 115.5t63.5 94.5t94.5 63.5t115.5 23.5t115.5 -23.5t94.5 -63.5t63.5 -94.5t23.5 -115.5v-410q0 -61 -23.5 -115.5t-63.5 -94.5t-94.5 -63.5t-115.5 -23.5t-115.5 23.5t-94.5 63.5t-63.5 94.5t-23.5 115.5zM120 1143.5q-7 33.5 11 62.5 q53 72 137 88q86 16 158 -39l16 -12q16 -10 31 -6q16 0 27 16q20 29 54 36t62 -11q29 -20 35 -54t-12 -63q-23 -35 -59.5 -57.5t-77.5 -30.5q-86 -16 -158 39l-16 12q-16 10 -31 6q-4 0 -12.5 -3t-14.5 -13q-18 -29 -52 -36t-62 12q-29 20 -36 53.5zM272 262q0 -47 33 -79.5 t80 -32.5t80 32.5t33 79.5v410q0 47 -33 79.5t-80 32.5t-80 -32.5t-33 -79.5v-410z" />
<glyph unicode="&#xf6;" horiz-adv-x="770" d="M88 262v410q0 61 23.5 115.5t63.5 94.5t94.5 63.5t115.5 23.5t115.5 -23.5t94.5 -63.5t63.5 -94.5t23.5 -115.5v-410q0 -61 -23.5 -115.5t-63.5 -94.5t-94.5 -63.5t-115.5 -23.5t-115.5 23.5t-94.5 63.5t-63.5 94.5t-23.5 115.5zM109 1184q0 47 32.5 79.5t79.5 32.5 t80 -32.5t33 -79.5t-33 -80t-80 -33t-79.5 33t-32.5 80zM272 262q0 -47 33 -79.5t80 -32.5t80 32.5t33 79.5v410q0 47 -33 79.5t-80 32.5t-80 -32.5t-33 -79.5v-410zM436 1184q0 47 33 79.5t80 32.5t80 -32.5t33 -79.5t-33 -80t-80 -33t-80 33t-33 80z" />
<glyph unicode="&#xf7;" d="M82 590q0 41 28.5 69.5t69.5 28.5h492q41 0 69.5 -28.5t28.5 -69.5t-28.5 -69.5t-69.5 -28.5h-492q-41 0 -69.5 28.5t-28.5 69.5zM307 324q0 49 35 83.5t84 34.5t84 -34.5t35 -83.5t-35 -84t-84 -35t-84 35t-35 84zM307 856q0 49 35 84t84 35t84 -35t35 -84t-35 -84 t-84 -35t-84 35t-35 84z" />
<glyph unicode="&#xf8;" horiz-adv-x="790" d="M23 -47q-9 35 10 65l84 144q-18 45 -19 100v410q0 61 23.5 115.5t63.5 94.5t94.5 63.5t115.5 23.5q90 0 162 -49l49 81q18 33 53 42.5t66 -9.5q33 -18 42 -53t-9 -68l-84 -141q18 -47 18 -100v-410q0 -61 -23.5 -115.5t-63.5 -94.5t-94 -63.5t-116 -23.5q-45 0 -87 13.5 t-77 35.5l-47 -84q-18 -31 -53 -40t-68 10q-31 18 -40 53zM283 449l182 311q-29 24 -70 24q-47 0 -79.5 -32.5t-32.5 -79.5v-223zM326 174q26 -24 69 -24q47 0 80 32.5t33 79.5v223z" />
<glyph unicode="&#xf9;" horiz-adv-x="802" d="M96 270v607q0 39 27 65.5t65 26.5q39 0 66 -27t27 -65v-607q0 -47 32.5 -79.5t79.5 -32.5h113v719q0 39 26.5 65.5t65.5 26.5t65.5 -27t26.5 -65v-811q0 -39 -26.5 -66t-65.5 -27h-205q-61 0 -115.5 23.5t-94.5 63.5t-63.5 94.5t-23.5 115.5zM203.5 1281.5 q-0.5 35.5 23.5 64.5q23 27 59 28.5t64 -22.5l205 -185q27 -25 29 -60.5t-23 -64.5q-25 -27 -60.5 -28.5t-62.5 22.5l-205 185q-29 25 -29.5 60.5z" />
<glyph unicode="&#xfa;" horiz-adv-x="802" d="M96 270v607q0 39 28 65.5t64 26.5q39 0 66 -27t27 -65v-607q0 -47 32.5 -79.5t79.5 -32.5h113v719q0 39 27.5 65.5t64.5 26.5q39 0 65.5 -27t26.5 -65v-811q0 -39 -26.5 -66t-65.5 -27h-205q-61 0 -115.5 23.5t-94.5 63.5t-63.5 94.5t-23.5 115.5zM203.5 1107 q1.5 36 29.5 60l205 185q27 25 63 22.5t60 -28.5q25 -29 24 -65t-30 -60l-205 -185q-29 -25 -64.5 -22.5t-58.5 28.5q-25 29 -23.5 65z" />
<glyph unicode="&#xfb;" horiz-adv-x="802" d="M96 270v607q0 39 28 65.5t64 26.5q39 0 66 -27t27 -65v-607q0 -47 32.5 -79.5t79.5 -32.5h113v719q0 39 27.5 65.5t64.5 26.5q39 0 65.5 -27t26.5 -65v-811q0 -39 -26.5 -66t-65.5 -27h-205q-61 0 -115.5 23.5t-94.5 63.5t-63.5 94.5t-23.5 115.5zM127 1112.5 q4 32.5 33 54.5l184 144q23 16 50.5 16t49.5 -16l185 -144q29 -23 33 -55.5t-19 -60.5q-20 -29 -54 -33t-61 18q-25 18 -47 37q-20 16 -43.5 33.5t-44.5 34.5q-20 -16 -42.5 -33.5t-43.5 -34.5q-22 -19 -47 -37q-27 -23 -60.5 -18.5t-56.5 33.5q-20 29 -16 61.5z" />
<glyph unicode="&#xfc;" horiz-adv-x="802" d="M96 270v607q0 39 28 65.5t64 26.5q39 0 66 -27t27 -65v-607q0 -47 32.5 -79.5t79.5 -32.5h113v719q0 39 27.5 65.5t64.5 26.5q39 0 65.5 -27t26.5 -65v-811q0 -39 -26.5 -66t-65.5 -27h-205q-61 0 -114.5 23.5t-94.5 63.5t-64.5 94.5t-23.5 115.5zM117 1184 q0 47 32.5 79.5t79.5 32.5t80 -32.5t33 -79.5t-33 -80t-80 -33t-79.5 33t-32.5 80zM444 1184q0 47 33 79.5t80 32.5t80 -32.5t33 -79.5t-33 -80t-80 -33t-80 33t-33 80z" />
<glyph unicode="&#xfd;" horiz-adv-x="755" d="M10 -352q0 39 26.5 65.5t65.5 26.5t69 22.5t40 57.5l72 237l-240 793q-10 37 8.5 70.5t54.5 44.5q35 10 70 -7.5t45 -54.5l158 -524l156 524q12 37 45.5 54.5t68.5 7.5q37 -10 55.5 -44t8.5 -71l-246 -819l-80 -264q-29 -96 -106 -152q-78 -59 -179 -59q-39 0 -65.5 26.5 t-26.5 65.5zM187 1107q1 36 30 60l205 185q29 25 64.5 22.5t58.5 -28.5q25 -29 23.5 -65t-29.5 -60l-205 -185q-27 -25 -62.5 -23t-60.5 29q-25 29 -24 65z" />
<glyph unicode="&#xfe;" horiz-adv-x="794" d="M113 -352v1638q0 39 26.5 65.5t65.5 26.5t65.5 -26.5t26.5 -65.5v-317h113q61 0 115.5 -23.5t94 -63.5t63.5 -94.5t24 -115.5v-410q0 -61 -24 -115.5t-63.5 -94.5t-94 -63.5t-115.5 -23.5h-113v-317q0 -39 -26.5 -65.5t-65.5 -26.5t-65.5 26.5t-26.5 65.5zM297 150h113 q47 0 79.5 32.5t32.5 79.5v410q0 47 -32.5 79.5t-79.5 32.5h-113v-634z" />
<glyph unicode="&#xff;" horiz-adv-x="755" d="M10 -352q0 39 26.5 65.5t65.5 26.5t69 22.5t40 57.5l72 237l-238 793q-12 37 6.5 70.5t54.5 44.5q37 10 71 -7.5t44 -54.5l158 -524l158 524q10 37 43.5 54.5t70.5 7.5q35 -10 53.5 -44t8.5 -71l-246 -819l-80 -264q-29 -96 -106 -152q-78 -59 -179 -59q-39 0 -65.5 26.5 t-26.5 65.5zM102 1184q0 47 33 79.5t80 32.5t80 -32.5t33 -79.5t-33 -80t-80 -33t-80 33t-33 80zM430 1184q0 47 33 79.5t80 32.5t79.5 -32.5t32.5 -79.5t-32.5 -80t-79.5 -33t-80 33t-33 80z" />
<glyph unicode="&#x152;" horiz-adv-x="1220" d="M82 303v696q0 72 26.5 134.5t73.5 109.5t109.5 73.5t134.5 26.5q90 0 170 -45q27 37 76 37h409q41 0 70 -28.5t29 -69.5t-29 -69.5t-70 -28.5h-311v-181v-188h270q41 0 70 -28.5t29 -69.5t-29 -70t-70 -29h-270v-229v-180h311q41 0 70 -29t29 -69q0 -41 -29 -70t-70 -29 h-409q-49 0 -76 37q-80 -45 -170 -45q-72 0 -134.5 26.5t-109.5 73.5t-73.5 109.5t-26.5 134.5zM279 303q0 -61 43 -104t104 -43t104 43t43 104v41v614v41q0 61 -43 104.5t-104 43.5t-104 -43t-43 -105v-696z" />
<glyph unicode="&#x153;" horiz-adv-x="1163" d="M88 262v410q0 61 23.5 115.5t63.5 94.5t94.5 63.5t115.5 23.5q59 0 111.5 -21.5t93.5 -60.5q41 39 93 60.5t112 21.5q61 0 115.5 -23.5t94 -63.5t63.5 -94.5t24 -115.5v-205q0 -39 -27 -65.5t-66 -26.5h-317v-113q0 -35 18.5 -62.5t51.5 -41.5q31 -12 64.5 -6t57.5 30 q27 29 65 29t65 -29q29 -29 28.5 -65.5t-28.5 -65.5q-63 -63 -150.5 -80.5t-173.5 17.5q-53 20 -90 59q-41 -39 -93.5 -60.5t-111.5 -21.5q-61 0 -115.5 23.5t-94.5 63.5t-63.5 94.5t-23.5 115.5zM272 262q0 -47 33 -79.5t80 -32.5t80 32.5t33 79.5v410q0 47 -33 79.5 t-80 32.5t-80 -32.5t-33 -79.5v-410zM682 559h225v113q0 47 -32.5 79.5t-79.5 32.5t-80 -32.5t-33 -79.5v-113z" />
<glyph unicode="&#x178;" horiz-adv-x="823" d="M31 1276q12 39 49 57t75 5t56 -50l68 -135q29 -59 63.5 -129t67.5 -133q33 63 67.5 133t63.5 129l67 135q18 37 57.5 50.5t75.5 -5.5q37 -18 49.5 -57t-6.5 -76l-276 -551v-592q0 -41 -28.5 -69.5t-69.5 -28.5t-70 28.5t-29 69.5v592l-276 551q-16 37 -4 76zM127 1593 q0 49 35 84t84 35t84 -35t35 -84t-35 -83.5t-84 -34.5t-84 34.5t-35 83.5zM455 1593q0 49 34.5 84t83.5 35t84 -35t35 -84t-34.5 -83.5t-84.5 -34.5q-49 0 -83.5 34.5t-34.5 83.5z" />
<glyph unicode="&#x2c6;" horiz-adv-x="1024" d="M246 1112.5q4 32.5 30 54.5l185 144q23 16 51.5 16t50.5 -16l185 -144q29 -23 32.5 -55.5t-18.5 -60.5q-20 -29 -54 -33t-63 18q-25 18 -47 37q-20 16 -43 33.5t-43 34.5q-20 -16 -43 -33.5t-43 -34.5q-22 -19 -47 -37q-29 -23 -61.5 -18.5t-55.5 33.5q-20 29 -16 61.5z " />
<glyph unicode="&#x2dc;" horiz-adv-x="1024" d="M247 1144q-7 34 11 62q53 72 137 88q86 16 158 -39l16 -12q16 -10 31 -6q16 0 27 16q20 29 54 36t62 -11q29 -20 35 -54t-12 -63q-23 -35 -59.5 -57.5t-77.5 -30.5q-86 -16 -158 39l-16 12q-16 10 -31 6q-4 0 -12.5 -3t-14.5 -13q-18 -29 -52 -36t-62 12q-29 20 -36 54z " />
<glyph unicode="&#x2000;" horiz-adv-x="907" />
<glyph unicode="&#x2001;" horiz-adv-x="1815" />
<glyph unicode="&#x2002;" horiz-adv-x="907" />
<glyph unicode="&#x2003;" horiz-adv-x="1815" />
<glyph unicode="&#x2004;" horiz-adv-x="605" />
<glyph unicode="&#x2005;" horiz-adv-x="453" />
<glyph unicode="&#x2006;" horiz-adv-x="302" />
<glyph unicode="&#x2007;" horiz-adv-x="302" />
<glyph unicode="&#x2008;" horiz-adv-x="226" />
<glyph unicode="&#x2009;" horiz-adv-x="363" />
<glyph unicode="&#x200a;" horiz-adv-x="100" />
<glyph unicode="&#x2010;" d="M82 590q0 41 28.5 69.5t69.5 28.5h492q41 0 69.5 -28.5t28.5 -69.5t-28.5 -69.5t-69.5 -28.5h-492q-41 0 -69.5 28.5t-28.5 69.5z" />
<glyph unicode="&#x2011;" d="M82 590q0 41 28.5 69.5t69.5 28.5h492q41 0 69.5 -28.5t28.5 -69.5t-28.5 -69.5t-69.5 -28.5h-492q-41 0 -69.5 28.5t-28.5 69.5z" />
<glyph unicode="&#x2012;" d="M82 590q0 41 28.5 69.5t69.5 28.5h492q41 0 69.5 -28.5t28.5 -69.5t-28.5 -69.5t-69.5 -28.5h-492q-41 0 -69.5 28.5t-28.5 69.5z" />
<glyph unicode="&#x2013;" horiz-adv-x="1024" d="M-98 590q0 41 28.5 69.5t69.5 28.5h1024q41 0 69.5 -28.5t28.5 -69.5t-28.5 -69.5t-69.5 -28.5h-1024q-41 0 -69.5 28.5t-28.5 69.5z" />
<glyph unicode="&#x2014;" horiz-adv-x="2048" d="M-98 590q0 41 28.5 69.5t69.5 28.5h2048q41 0 69.5 -28.5t28.5 -69.5t-28.5 -69.5t-69.5 -28.5h-2048q-41 0 -69.5 28.5t-28.5 69.5z" />
<glyph unicode="&#x2018;" horiz-adv-x="393" d="M70 1049v98q0 59 33.5 110.5t89.5 73.5q35 16 70.5 1t51.5 -52q14 -35 -1 -69.5t-50 -51.5q-8 -4 -8 -12v-10q29 -8 47.5 -32.5t18.5 -55.5q0 -39 -27 -67t-66 -28h-65q-41 0 -67.5 28t-26.5 67z" />
<glyph unicode="&#x2019;" horiz-adv-x="393" d="M70 1237q0 39 26.5 65.5t67.5 26.5h65q39 0 66 -26.5t27 -65.5v-98q0 -61 -34 -111.5t-89 -73.5q-35 -16 -71 -0.5t-50 50.5q-16 37 -1 71.5t50 50.5q8 4 8 13v8q-29 10 -47 34.5t-18 55.5z" />
<glyph unicode="&#x201a;" horiz-adv-x="391" d="M70 98q0 39 26.5 65.5t67.5 26.5h65q39 0 66 -26.5t27 -65.5v-98q0 -61 -34 -111.5t-89 -72.5q-35 -16 -71 -1t-50 50q-16 37 -1 71.5t50 51.5q8 4 8 12v8q-29 10 -47 35t-18 55z" />
<glyph unicode="&#x201c;" horiz-adv-x="759" d="M70 1049v98q0 59 32.5 110.5t90.5 73.5q35 16 69.5 1t50.5 -52q16 -35 1 -69.5t-50 -51.5q-8 -2 -8 -12v-10q29 -8 47.5 -33t18.5 -55q0 -39 -28 -67t-67 -28h-65q-39 0 -65.5 28t-26.5 67zM438 1049v98q0 59 33 110.5t90 73.5q35 16 70 1t51 -52q16 -35 1 -70t-50 -51 q-8 -2 -8 -12v-10q29 -8 47 -33t18 -55q0 -39 -27.5 -67t-66.5 -28h-66q-39 0 -65.5 28t-26.5 67z" />
<glyph unicode="&#x201d;" horiz-adv-x="761" d="M72 1237q0 39 26.5 65.5t65.5 26.5h65q39 0 67 -26.5t28 -65.5v-98q0 -61 -34 -111.5t-89 -73.5q-37 -16 -72 -0.5t-51 50.5q-16 37 -1 71.5t52 50.5q8 4 8 13v8q-29 10 -47 34.5t-18 55.5zM440 1237q0 39 27 65.5t65 26.5h66q39 0 66.5 -26.5t27.5 -65.5v-98 q0 -61 -33.5 -111.5t-89.5 -73.5q-37 -16 -71.5 -0.5t-51.5 50.5q-16 37 -0.5 71.5t52.5 50.5q8 4 8 13v8q-29 10 -47.5 34.5t-18.5 55.5z" />
<glyph unicode="&#x201e;" horiz-adv-x="761" d="M70 98q0 39 27.5 65.5t66.5 26.5h65q39 0 66 -26.5t27 -65.5v-98q0 -61 -33 -111.5t-90 -72.5q-35 -16 -70 -1t-51 50q-16 37 -1 71.5t50 51.5q8 2 8 12v8q-29 10 -47 35t-18 55zM438 98q0 39 28 65.5t66 26.5h66q39 0 65.5 -26.5t26.5 -65.5v-98q0 -61 -32.5 -111.5 t-90.5 -72.5q-35 -16 -69.5 -1t-51.5 50q-16 37 -0.5 72t50.5 51q8 2 8 12v8q-29 10 -47.5 35t-18.5 55z" />
<glyph unicode="&#x2022;" horiz-adv-x="524" d="M31 578q0 47 18.5 89t50 73.5t73.5 50t89 18.5q49 0 91 -18.5t73 -50t49.5 -73.5t18.5 -89t-18.5 -89.5t-49.5 -74t-73 -50t-91 -18.5q-47 0 -89 18.5t-73.5 50t-50 73.5t-18.5 90zM207 578q0 -23 16 -39.5t39 -16.5t39 16.5t16 39.5t-16 39t-39 16t-39 -16.5t-16 -38.5z " />
<glyph unicode="&#x2026;" horiz-adv-x="1179" d="M61 78q0 49 35 84t84 35t84 -35t35 -84t-35 -84t-84 -35t-84 35t-35 84zM471 78q0 49 35 84t84 35t84 -35t35 -84t-35 -84t-84 -35t-84 35t-35 84zM881 78q0 49 34.5 84t83.5 35t84 -35t35 -84t-34.5 -84t-84.5 -35q-49 0 -83.5 35t-34.5 84z" />
<glyph unicode="&#x202f;" horiz-adv-x="363" />
<glyph unicode="&#x2039;" horiz-adv-x="489" d="M78 549q-27 47 0 96l131 238q20 35 59 47t76 -8q49 -29 49 -86q0 -27 -12 -48q-20 -37 -41 -73q-16 -31 -33.5 -62.5t-30.5 -54.5q12 -25 32 -59.5t38 -67.5q23 -37 43 -80q12 -23 12 -47q0 -57 -49 -86q-37 -20 -75.5 -8t-59.5 47z" />
<glyph unicode="&#x203a;" horiz-adv-x="489" d="M88 344q0 25 12 47q23 43 45 80q18 33 37 67.5t33 59.5q-14 23 -31.5 54.5t-33.5 62.5q-20 37 -41 73q-12 20 -13 48q0 57 51 86q35 20 75 8t59 -47l131 -238q27 -49 0 -96l-140 -252q-18 -35 -58 -47t-75 8q-51 29 -51 86z" />
<glyph unicode="&#x205f;" horiz-adv-x="453" />
<glyph unicode="&#x20ac;" d="M4 487q0 41 28.5 70t69.5 29h66v131h-66q-41 0 -69.5 28.5t-28.5 69.5t28.5 69.5t69.5 28.5h66v86q0 57 18.5 111.5t52 98.5t81 76t102.5 46t112.5 11t108.5 -24.5t94 -58t72 -88.5l20 -34q20 -35 10 -75t-44 -61q-35 -20 -75 -8.5t-61 45.5l-20 35q-25 43 -72 62.5 t-94 5.5q-47 -12 -77.5 -52t-30.5 -90v-86h229q41 0 69.5 -28.5t28.5 -69.5t-28.5 -69.5t-69.5 -28.5h-229v-131h147q41 0 69.5 -29t28.5 -70t-28.5 -69.5t-69.5 -28.5h-147v-86q0 -51 30.5 -90t77.5 -53q47 -12 94 7t72 62l20 35q20 35 60.5 46.5t75.5 -9.5q35 -20 45 -60 t-11 -75l-20 -35q-29 -51 -72 -88t-94 -58.5t-108.5 -25.5t-112.5 12q-55 14 -102.5 46t-81 76t-52 97.5t-18.5 112.5v86h-66q-41 0 -69.5 28.5t-28.5 69.5z" />
<glyph unicode="&#x2122;" horiz-adv-x="1372" d="M25 1237q0 39 26.5 65.5t65.5 26.5h409q39 0 67 -26.5t28 -65.5t-28 -66.5t-67 -27.5h-110v-512q0 -39 -27.5 -66.5t-66.5 -27.5t-66 27.5t-27 66.5v512h-112q-39 0 -65.5 27.5t-26.5 66.5zM680 631v614q0 31 17.5 54.5t45.5 33.5q29 10 59 0t46 -35q20 -29 43 -59 q18 -27 40.5 -58.5t45.5 -62.5q23 31 46.5 62.5t41.5 58.5q23 31 41 59q18 25 47 35t57 0q29 -10 47.5 -33.5t18.5 -54.5v-614q0 -39 -27.5 -66.5t-66.5 -27.5t-65.5 27.5t-26.5 66.5v323q-4 -6 -10.5 -14t-12.5 -16q-8 -8 -14 -19q-27 -41 -76 -41q-45 0 -76 41 q-6 10 -14 19q-14 16 -21 30v-323q0 -39 -27.5 -66.5t-66.5 -27.5t-65.5 27.5t-26.5 66.5z" />
<glyph unicode="&#x25fc;" horiz-adv-x="972" d="M0 0v973h973v-973h-973z" />
</font>
</defs>
</svg>
